Ивановский Торрент трекер
Яндекс.Погода
 

[Цитировать]
HUNTER


Город героев
Big Hero 6
- Страна: США (Walt Disney Animation Studios)
Жанр: фантастика, комедия, семейный
Продолжительность: 01:41:52
Год выпуска: 2014
Перевод: Профессиональный (дублированный) [Rus, Ukr]
Перевод 2: Авторский (одноголосый закадровый) Юрий Сербин
Перевод 2: Авторский (одноголосый закадровый) Юрий Живов
Русские субтитры: есть-Режиссёр: Дон Холл / Don Hall, Крис Уильямс / Chris Williams
Роли озвучивали: Райан Поттер, Скотт Эдсит, Дэниэл Хенни, ТиДжей Миллер, Джейми Чанг, Дэймон Уайанс мл., Дженезис Родригез, Джеймс Кромуэлл, Алан Тьюдик, Майя Рудольф-Роли дублировали: Даниил Рагин, Максим Сергеев, Игорь Сергеев, Валерий Смекалов, Аделина Червякова-ОписаниеЮный Хиро Хамада — прирожденный изобретатель и гений конструирования роботов. Вместе со старшим братом Тадаши они воплощают в жизнь самые передовые идеи в Техническом университете города будущего Сан-Франсокио. После серии загадочных событий друзья оказываются в центре коварного заговора. Отчаявшись, Хиро решает использовать веселого и добродушного экспериментального робота Бэймакса, перепрограммировав его в неуязвимую боевую машину.- Релиз: -
«Город героев» (англ. Big Hero 6) — американский трёхмерный компьютерный анимационный фильм 2014 года, созданный студией «Walt Disney Animation Studios» и выпущенный кинокомпанией «Walt Disney Pictures». Основан на одноимённых персонажах[en] комиксов издательства Marvel

Оскар, 2015 год
Победитель (1):
Лучший анимационный фильм

Качество: BDRip-AVC Big.Hero.6.2014.1080p.BluRay.AVC.DTS-HD.MA.7.1-RARBG
Формат: MKV
Видео: AVC 2715 Kbps1152 x 482 (2.390) 23.976 fps
Аудио 1: AC-3 448 Kbps 6 channels, 48.0 KHz Rus
Аудио 2: AC-3 448 Kbps 6 channels, 48.0 KHz AVO Юрий Сербин
Аудио 3: AC-3 448 Kbps 6 channels, 48.0 KHz AVO Юрий Живов
Аудио 4: AC-3 448 Kbps 6 channels, 48.0 KHz Ukr
Аудио 5: AC-3 448 Kbps 6 channels, 48.0 KHz Eng
Субтитры: Rus [Full], Ukr [Forced, Full], Eng [Ful, SDH]

Скриншоты






MI | Log

Log
x264 [info]: frame I:1192 Avg QP:14.51 size: 89997
x264 [info]: frame P:36334 Avg QP:16.20 size: 30191
x264 [info]: frame B:109032 Avg QP:18.65 size: 8665
x264 [info]: consecutive B-frames: 5.0% 4.3% 9.2% 20.8% 16.7% 32.4% 5.3% 2.5% 1.1% 1.0% 0.4% 0.4% 0.3% 0.3% 0.3%
x264 [info]: mb I I16..4: 10.0% 65.0% 25.0%
x264 [info]: mb P I16..4: 0.9% 12.1% 2.9% P16..4: 27.5% 34.0% 14.3% 2.9% 0.3% skip: 5.0%
x264 [info]: mb B I16..4: 0.1% 1.3% 0.4% B16..8: 30.2% 21.5% 4.2% direct: 4.3% skip:38.0% L0:44.1% L1:43.7% BI:12.2%
x264 [info]: 8x8 transform intra:73.9% inter:53.1%
x264 [info]: direct mvs spatial:99.9% temporal:0.1%
x264 [info]: coded y,uvDC,uvAC intra: 90.4% 92.0% 78.6% inter: 21.2% 21.3% 7.6%
x264 [info]: i16 v,h,dc,p: 9% 16% 8% 67%
x264 [info]: i8 v,h,dc,ddl,ddr,vr,hd,vl,hu: 11% 10% 7% 9% 13% 12% 13% 11% 14%
x264 [info]: i4 v,h,dc,ddl,ddr,vr,hd,vl,hu: 25% 11% 3% 7% 12% 11% 11% 9% 11%
x264 [info]: i8c dc,h,v,p: 36% 29% 19% 16%
x264 [info]: Weighted P-Frames: Y:3.9% UV:3.0%
x264 [info]: ref P L0: 46.3% 8.1% 17.2% 6.6% 5.5% 3.9% 3.7% 2.0% 1.9% 1.5% 1.5% 1.4% 0.4% 0.0%
x264 [info]: ref B L0: 69.3% 12.3% 6.0% 3.4% 2.4% 2.1% 1.6% 1.1% 0.9% 0.6% 0.3%
x264 [info]: ref B L1: 92.7% 7.3%
x264 [info]: kb/s:2812.44
encoded 146558 frames, 7.87 fps, 2812.44 kb/s, duration 5:10:22.56
Format : Matroska
Format version : Version 4 / Version 2
File size : 3.60 GiB
Duration : 1h 41mn
Overall bit rate : 5 056 Kbps
Encoded date : UTC 2016-01-20 23:49:51
Writing application : mkvmerge v6.7.0 ('Back to the Ground') 32bit built on Jan 8 2014 15:03:17
Writing library : libebml v1.3.0 + libmatroska v1.4.1
Video
ID : 1
Format : AVC
Format/Info : Advanced Video Codec
Format profile : High@L4.1
Format settings, CABAC : Yes
Format settings, ReFrames : 12 frames
Codec ID : V_MPEG4/ISO/AVC
Duration : 1h 41mn
Bit rate : 2 715 Kbps
Width : 1 152 pixels
Height : 482 pixels
Display aspect ratio : 2.40:1
Frame rate mode : Constant
Frame rate : 23.976 fps
Color space : YUV
Chroma subsampling : 4:2:0
Bit depth : 8 bits
Scan type : Progressive
Bits/(Pixel*Frame) : 0.204
Stream size : 1.93 GiB (54%)
Title : Big Hero 6 (2014) [rutracker.org]
Writing library : x264 core 144 r2525kMod 40bb568
Encoding settings : cabac=1 / ref=12 / deblock=1:-2:-1 / analyse=0x3:0x133 / me=umh / subme=11 / psy=1 / fade_compensate=0.00 / psy_rd=1.00:0.05 / mixed_ref=1 / me_range=32 / chroma_me=1 / trellis=2 / 8x8dct=1 / cqm=0 / deadzone=21,11 / fast_pskip=0 / chroma_qp_offset=-3 / threads=12 / lookahead_threads=3 / sliced_threads=0 / nr=0 / decimate=1 / interlaced=0 / bluray_compat=0 / constrained_intra=0 / fgo=0 / bframes=14 / b_pyramid=2 / b_adapt=2 / b_bias=0 / direct=3 / weightb=1 / open_gop=0 / weightp=2 / keyint=250 / keyint_min=23 / scenecut=40 / intra_refresh=0 / rc_lookahead=80 / rc=crf / mbtree=0 / crf=17.2000 / qcomp=0.60 / qpmin=0 / qpmax=69 / qpstep=4 / vbv_maxrate=50000 / vbv_bufsize=62500 / crf_max=0.0 / nal_hrd=none / filler=0 / ip_ratio=1.40 / pb_ratio=1.30 / aq=3:0.90
Language : English
Default : Yes
Forced : No
Audio #1
ID : 2
Format : AC-3
Format/Info : Audio Coding 3
Mode extension : CM (complete main)
Format settings, Endianness : Big
Codec ID : A_AC3
Duration : 1h 41mn
Bit rate mode : Constant
Bit rate : 448 Kbps
Channel(s) : 6 channels
Channel positions : Front: L C R, Side: L R, LFE
Sampling rate : 48.0 KHz
Compression mode : Lossy
Stream size : 326 MiB (9%)
Title : DUB [Blu-ray]
Language : Russian
Default : Yes
Forced : No
Audio #2
ID : 3
Format : AC-3
Format/Info : Audio Coding 3
Mode extension : CM (complete main)
Format settings, Endianness : Big
Codec ID : A_AC3
Duration : 1h 41mn
Bit rate mode : Constant
Bit rate : 448 Kbps
Channel(s) : 6 channels
Channel positions : Front: L C R, Side: L R, LFE
Sampling rate : 48.0 KHz
Compression mode : Lossy
Stream size : 326 MiB (9%)
Title : AVO (U. Serbin)
Language : Russian
Default : No
Forced : No
Audio #3
ID : 4
Format : AC-3
Format/Info : Audio Coding 3
Mode extension : CM (complete main)
Format settings, Endianness : Big
Codec ID : A_AC3
Duration : 1h 41mn
Bit rate mode : Constant
Bit rate : 448 Kbps
Channel(s) : 6 channels
Channel positions : Front: L C R, Side: L R, LFE
Sampling rate : 48.0 KHz
Compression mode : Lossy
Stream size : 326 MiB (9%)
Title : AVO (U. Jivov)
Language : Russian
Default : No
Forced : No
Audio #4
ID : 5
Format : AC-3
Format/Info : Audio Coding 3
Mode extension : CM (complete main)
Format settings, Endianness : Big
Codec ID : A_AC3
Duration : 1h 41mn
Bit rate mode : Constant
Bit rate : 448 Kbps
Channel(s) : 6 channels
Channel positions : Front: L C R, Side: L R, LFE
Sampling rate : 48.0 KHz
Compression mode : Lossy
Stream size : 326 MiB (9%)
Title : DUB
Language : Ukrainian
Default : No
Forced : No
Audio #5
ID : 6
Format : AC-3
Format/Info : Audio Coding 3
Mode extension : CM (complete main)
Format settings, Endianness : Big
Codec ID : A_AC3
Duration : 1h 41mn
Bit rate mode : Constant
Bit rate : 448 Kbps
Channel(s) : 6 channels
Channel positions : Front: L C R, Side: L R, LFE
Sampling rate : 48.0 KHz
Compression mode : Lossy
Stream size : 326 MiB (9%)
Title : Original
Language : English
Default : No
Forced : No
Text #1
ID : 7
Format : UTF-8
Codec ID : S_TEXT/UTF8
Codec ID/Info : UTF-8 Plain Text
Title : Full
Language : Russian
Default : No
Forced : No
Text #2
ID : 8
Format : UTF-8
Codec ID : S_TEXT/UTF8
Codec ID/Info : UTF-8 Plain Text
Title : Forced
Language : Ukrainian
Default : No
Forced : No
Text #3
ID : 9
Format : UTF-8
Codec ID : S_TEXT/UTF8
Codec ID/Info : UTF-8 Plain Text
Title : Full
Language : Ukrainian
Default : No
Forced : No
Text #4
ID : 10
Format : UTF-8
Codec ID : S_TEXT/UTF8
Codec ID/Info : UTF-8 Plain Text
Title : Full
Language : English
Default : No
Forced : No
Text #5
ID : 11
Format : UTF-8
Codec ID : S_TEXT/UTF8
Codec ID/Info : UTF-8 Plain Text
Title : SDH
Language : English
Default : No
Forced : No
Menu
00:00:00.000 : en: 1. Hustle
00:07:15.685 : en: 2. Nerd School
00:14:37.835 : en: 3. Showcase
00:21:49.183 : en: 4. Tragedy
00:24:32.888 : en: 5. A New Friend
00:29:34.731 : en: 6. Being Helpful
00:36:58.091 : en: 7. Upgrade
00:44:18.322 : en: 8. The Chase
00:50:49.088 : en: 9. Fred's House
00:54:33.020 : en:10. Training
01:00:44.140 : en:11. Secret Lair
01:07:12.612 : en:12. Big Reveal
01:11:54.644 : en:13. Putting It All Together
01:16:26.665 : en:14. Saving The Day!
01:24:44.162 : en:15. The Portal
01:31:52.757 : en:16. End Credits
Показать сообщения:    

Текущее время: 17-Окт 10:35

Часовой пояс: UTC - 1


Вы не можете начинать темы
Вы не можете отвечать на сообщения
Вы не можете редактировать свои сообщения
Вы не можете удалять свои сообщения
Вы не можете голосовать в опросах
Вы не можете прикреплять файлы к сообщениям
Вы не можете скачивать файлы

!ВНИМАНИЕ!
Сайт не предоставляет электронные версии произведений, а занимается лишь коллекционированием и каталогизацией ссылок, присылаемых и публикуемых на форуме нашими читателями. Если вы являетесь правообладателем какого-либо представленного материала и не желаете, чтобы ссылка на него находилась в нашем каталоге, свяжитесь с нами, и мы незамедлительно удалим ее. Файлы для обмена на трекере предоставлены пользователями сайта, и администрация не несет ответственности за их содержание. Просьба не заливать файлы, защищенные авторскими правами, а также файлы нелегального содержания!