Важное объявление!
У Нас Все раздачи мультитрекерные, при нуле пиров в релизах, можете смело вставать на закачку!
 
Автор Сообщение

HUNTER

Стаж:
4 года 10 месяцев
Сообщений:
65522

Репутация: 101

[+] [-]
Вне форума [Профиль] [ЛС]

Городские легенды 2: Последний отрезок / Urban Legends: Final Cut
Страна: США, Франция
Студия: Canal+ Droits Audiovisuels, Original Film
Жанр: ужасы, триллер, детектив
Год выпуска: 2000
Продолжительность: 01:38:19
Перевод: Профессиональный (двухголосый закадровый)
Cубтитры: английские
Оригинальная аудиодорожка: английский
Режиссер: Джон Оттмен / John Ottman
В ролях: Дженнифер Моррисон, Мэттью Дэвис, Харт Бокнер, Лоретта Дивайн, Джозеф Лоуренс, Энсон Маунт, Ева Мендес, Энтони Андерсон, Джессика Коффил, Майкл Бэколл
Описание: Студентка университета Эми снимает свой дипломный фильм о городских легендах, страшных историях, порожденных первобытным хаосом современных мегаполисов.
Во время съемок происходит таинственная череда загадочных и кровавых событий. Из режиссера Эми должна стать сыщиком — иначе к концу своей картины она сама станет городской легендой.

Доп. информация: В раздаче DVD этого фильма неверно указано количество каналов русской дорожки. Там стерео 2.0.

Sample
Тип релиза: WEB-DL 720p
Контейнер: MKV
Видео: MPEG4 AVC Video, H264, 16:9, 1280x532, 23.976 fps, 3979 kbps
Аудио: Russian (AC3, 2 ch, 192 kbps, 16 bits, 48.0 KHz) - DVO
Аудио 2: English (AC3, 6 ch, 384 kbps, 16 bits, 48.0 KHz) - оригинал
Формат субтитров: softsub (SRT)

MediaInfo

General
Unique ID : 188716268523970069664362263229887492960 (0x8DF96E66AF1B37D48A83B6912B213360)
Complete name : K:\Urban Legends.Final Cut 2000 WEB-DL 720p.mkv
Format : Matroska
Format version : Version 4 / Version 2
File size : 3.19 GiB
Duration : 1h 38mn
Overall bit rate : 4 648 Kbps
Encoded date : UTC 2016-04-03 18:04:51
Writing application : mkvmerge v6.1.0 ('Old Devil') built on Mar 2 2013 14:32:37
Writing library : libebml v1.3.0 + libmatroska v1.4.0
Video
ID : 1
Format : AVC
Format/Info : Advanced Video Codec
Format profile : Main@L3.1
Format settings, CABAC : No
Format settings, ReFrames : 2 frames
Codec ID : V_MPEG4/ISO/AVC
Duration : 1h 38mn
Bit rate : 3 979 Kbps
Width : 1 280 pixels
Height : 532 pixels
Display aspect ratio : 2.40:1
Frame rate mode : Constant
Frame rate : 23.976 fps
Color space : YUV
Chroma subsampling : 4:2:0
Bit depth : 8 bits
Scan type : Progressive
Bits/(Pixel*Frame) : 0.244
Stream size : 2.73 GiB (86%)
Language : English
Default : Yes
Forced : No
Color primaries : BT.709
Transfer characteristics : BT.709
Matrix coefficients : BT.709
Audio #1
ID : 2
Format : AC-3
Format/Info : Audio Coding 3
Mode extension : CM (complete main)
Format settings, Endianness : Big
Codec ID : A_AC3
Duration : 1h 38mn
Bit rate mode : Constant
Bit rate : 192 Kbps
Channel count : 2 channels
Channel positions : Front: L R
Sampling rate : 48.0 KHz
Bit depth : 16 bits
Compression mode : Lossy
Stream size : 135 MiB (4%)
Language : Russian
Default : Yes
Forced : No
Audio #2
ID : 3
Format : AC-3
Format/Info : Audio Coding 3
Mode extension : CM (complete main)
Format settings, Endianness : Big
Codec ID : A_AC3
Duration : 1h 38mn
Bit rate mode : Constant
Bit rate : 384 Kbps
Channel count : 6 channels
Channel positions : Front: L C R, Side: L R, LFE
Sampling rate : 48.0 KHz
Bit depth : 16 bits
Compression mode : Lossy
Stream size : 270 MiB (8%)
Language : English
Default : No
Forced : No
Text
ID : 4
Format : UTF-8
Codec ID : S_TEXT/UTF8
Codec ID/Info : UTF-8 Plain Text
Language : English
Default : No
Forced : No
Menu
00:00:00.000 : en:Chapter 1
00:06:23.000 : en:Chapter 2
00:11:54.000 : en:Chapter 3
00:16:59.000 : en:Chapter 4
00:21:19.000 : en:Chapter 5
00:25:18.000 : en:Chapter 6
00:29:32.000 : en:Chapter 7
00:34:53.000 : en:Chapter 8
00:39:27.000 : en:Chapter 9
00:44:15.000 : en:Chapter 10
00:51:44.000 : en:Chapter 11
00:56:31.000 : en:Chapter 12
01:00:10.000 : en:Chapter 13
01:07:42.000 : en:Chapter 14
01:17:13.000 : en:Chapter 15
01:24:51.000 : en:Chapter 16

Скриншоты


_________________
Показать сообщения:    

Текущее время: Сегодня 18:05

Часовой пояс: GMT



Вы не можете начинать темы
Вы не можете отвечать на сообщения
Вы не можете редактировать свои сообщения
Вы не можете удалять свои сообщения
Вы не можете голосовать в опросах
Вы не можете прикреплять файлы к сообщениям
Вы не можете скачивать файлы