Ивановский Торрент трекер
Яндекс.Погода
Статистика раздачи
Размер:  4.34 GB   |    Зарегистрирован:  4 года 6 месяцев   |    Скачан:  3 раза
Сидов:  19  [  0 KB/s  ]   Личеров:  4  [  0 KB/s  ]   Подробная статистика пиров
 
     
 
 

[Цитировать]
димитри37

Голые и смешные / Naked and Funny- -Год выпуска: 2013
Страна:
Жанр: Юмористическая программа, Скрытая камера, Эротика
Продолжительность: 00:25:00
Перевод: Не требуется
Русские субтитры: нет-Описание: Пришло время отдохнуть "Скрытой камере" и "Самому смешному домашнему видео". За внимание телезрителей будут бороться розыгрыши эротического характера! Телезрители убедятся, что эротика может быть не только красивой, но и по-настоящему веселой! Программа "Голые и смешные" лучшее тому доказательство. В проекте вы увидите, как раскованные красавицы-актрисы и актеры разыгрывают ни о чем не подозревающих случайных прохожих, посетителей клубов, покупателей в супермаркетах, пляжников, да кого угодно! Чаще всего реакции героев розыгрыша на неожиданную демонстрацию прелестей женских тел предсказать невозможно. Да и стоит ли? Комедийности, юмора и находчивости этому шоу не занимать!-качество: DVB
формат: MPEG2
видеокодек: MPEG2
аудиокодек: MPEG
Видео: MPEG2 Video 768х576 (704x576) (4:3) 25fps 3 628 Kbps
Аудио: MPEG Audio 48000Hz stereo 192kbps

Список выпусков/серий

Эфир-2013-04-23
Эфир-2013-04-24
Эфир-2013-04-25
Эфир-2013-04-30
Эфир-2013-05-06
Эфир-2013-05-07
Эфир-2013-05-09

MediaInfo

General
Complete name : C:\Documents and Settings\Mersicc\Мои документы\Мои видеозаписи\Голые и смешные Эфир 5\Эфир-2013-05-07.mpg
Format : MPEG-PS
File size : 630 MiB
Duration : 22mn 19s
Overall bit rate mode : Variable
Overall bit rate : 3 948 Kbps
Video
ID : 224 (0xE0)
Format : MPEG Video
Format version : Version 2
Format profile : Main@Main
Format settings, BVOP : Yes
Format settings, Matrix : Custom
Format settings, GOP : Variable
Duration : 22mn 19s
Bit rate mode : Variable
Bit rate : 3 678 Kbps
Maximum bit rate : 4 000 Kbps
Width : 704 pixels
Height : 576 pixels
Display aspect ratio : 4:3
Frame rate : 25.000 fps
Standard : PAL
Color space : YUV
Chroma subsampling : 4:2:0
Bit depth : 8 bits
Scan type : Interlaced
Scan order : Top Field First
Compression mode : Lossy
Bits/(Pixel*Frame) : 0.363
Stream size : 587 MiB (93%)
Matrix coefficients : BT.601
Audio
ID : 192 (0xC0)
Format : MPEG Audio
Format version : Version 1
Format profile : Layer 2
Duration : 22mn 19s
Bit rate mode : Constant
Bit rate : 192 Kbps
Channel(s) : 2 channels
Sampling rate : 48.0 KHz
Compression mode : Lossy
Delay relative to video : -80ms
Stream size : 30.7 MiB (5%)
-
[iv-torrents.ru].t3631.torrent
Торрент: Зарегистрирован [ 2013-05-19 12:50 ] · 2B836421701A2F347C8D712732C8EBA00FF7054F

Скачать .torrent

Скачать

88 KB

Статус: проверено
Скачан: 3 раз
Размер: 4.34 GB
terms.php


Показать сообщения:    

Текущее время: 18-Дек 11:01

Часовой пояс: UTC ± 0


Вы не можете начинать темы
Вы не можете отвечать на сообщения
Вы не можете редактировать свои сообщения
Вы не можете удалять свои сообщения
Вы не можете голосовать в опросах
Вы не можете прикреплять файлы к сообщениям
Вы можете скачивать файлы

!ВНИМАНИЕ!
Сайт не предоставляет электронные версии произведений, а занимается лишь коллекционированием и каталогизацией ссылок, присылаемых и публикуемых на форуме нашими читателями. Если вы являетесь правообладателем какого-либо представленного материала и не желаете, чтобы ссылка на него находилась в нашем каталоге, свяжитесь с нами, и мы незамедлительно удалим ее. Файлы для обмена на трекере предоставлены пользователями сайта, и администрация не несет ответственности за их содержание. Просьба не заливать файлы, защищенные авторскими правами, а также файлы нелегального содержания!