Ивановский Торрент трекер
Яндекс.Погода
 

[Цитировать]
HUNTER

Голые и напуганные / Naked and Afraid (Сезон 1. 1-7 серия)
Год выпуска: 2013
Страна: США
Жанр: Приключения, Путешествия
Продолжительность: 00:44:15
Перевод: Профессиональный (многоголосый, закадровый)
Режиссер: Discovery Channel
Описание: Двое людей должны прожить 21 день без еды, воды и одежды в одной из наиболее удаленных точек планеты. Удастся ли им протянуть столько в окружении разнообразных хищников?
Cписок серий 1-го сезона
1x01 The Jungle Curse
1x02 Terror in Tanzania
1x03 Island From Hell
1x04 Punishment in Panama
1x05 Breaking Borneo
1x06 Beware the Bayou
1x07 Bares All

Автор записи: BL
Сэмпл: http://multi-up.com/950395
Качество: IPTVRip
Формат: MPG
Видео: MPEG2, 720x576i (4:3) 25 FPS, 3 201 Kbps
Аудио RUS: MPEG Layer-II 192 kbps 48.0 kHz
Аудио ENG: MPEG Layer-II 192 kbps 48.0 kHz

MediaInfo

Naked.And.Afraid.S01E01.The.Jungle.Curse_BL.mpg
Format : MPEG-PS
File size : 1.13 GiB
Duration : 44mn 15s
Overall bit rate mode : Variable
Overall bit rate : 3 658 Kbps
Writing library : (c) 1998-2010 Womble Multimedia, Inc. / MPEG Video Wizard DVD 5.0.0.114 (01/2010) / Nov 13 2010
Video
ID : 224 (0xE0)
Format : MPEG Video
Format version : Version 2
Format profile : Main@Main
Format settings, BVOP : Yes
Format settings, Matrix : Custom
Format settings, GOP : Variable
Duration : 44mn 15s
Bit rate mode : Variable
Bit rate : 3 201 Kbps
Maximum bit rate : 15.0 Mbps
Width : 720 pixels
Height : 576 pixels
Display aspect ratio : 4:3
Frame rate : 25.000 fps
Standard : PAL
Color space : YUV
Chroma subsampling : 4:2:0
Bit depth : 8 bits
Scan type : Interlaced
Scan order : Top Field First
Compression mode : Lossy
Bits/(Pixel*Frame) : 0.309
Time code of first frame : 00:00:00:00
Time code source : Group of pictures header
Stream size : 1 013 MiB (88%)
Source encoded stream size : (c) 1998-2010 Womble Multimedia, Inc. / MPEG Video Wizard DVD 5.0.0.114 (01/2010) / Nov 13 2010
Writing library : (c) 1998-2010 Womble Multimedia, Inc. / MPEG Video Wizard DVD 5.0.0.114 (01/2010) / Nov 13 2010
Audio #1
ID : 192 (0xC0)
Format : MPEG Audio
Format version : Version 1
Format profile : Layer 2
Duration : 44mn 15s
Bit rate mode : Constant
Bit rate : 192 Kbps
Channel(s) : 2 channels
Sampling rate : 48.0 KHz
Compression mode : Lossy
Stream size : 60.8 MiB (5%)
Audio #2
ID : 193 (0xC1)
Format : MPEG Audio
Format version : Version 1
Format profile : Layer 2
Duration : 44mn 15s
Bit rate mode : Constant
Bit rate : 192 Kbps
Channel(s) : 2 channels
Sampling rate : 48.0 KHz
Compression mode : Lossy
Stream size : 60.8 MiB (5%)

Скриншоты Анаморф

Скриншоты 1x01 The Jungle Curse

Скриншоты 1x02 Terror in Tanzania

Скриншоты 1x03 Island From Hell

Скриншоты 1x04 Punishment in Panama

Скриншоты 1x05 Breaking Borneo

Скриншоты 1x06 Beware the Bayou

Скриншоты 1x07 Bares All

Показать сообщения:    

Текущее время: 23-Окт 17:59

Часовой пояс: UTC - 1


Вы не можете начинать темы
Вы не можете отвечать на сообщения
Вы не можете редактировать свои сообщения
Вы не можете удалять свои сообщения
Вы не можете голосовать в опросах
Вы не можете прикреплять файлы к сообщениям
Вы не можете скачивать файлы

!ВНИМАНИЕ!
Сайт не предоставляет электронные версии произведений, а занимается лишь коллекционированием и каталогизацией ссылок, присылаемых и публикуемых на форуме нашими читателями. Если вы являетесь правообладателем какого-либо представленного материала и не желаете, чтобы ссылка на него находилась в нашем каталоге, свяжитесь с нами, и мы незамедлительно удалим ее. Файлы для обмена на трекере предоставлены пользователями сайта, и администрация не несет ответственности за их содержание. Просьба не заливать файлы, защищенные авторскими правами, а также файлы нелегального содержания!