Важное объявление!
У Нас Все раздачи мультитрекерные, при нуле пиров в релизах, можете смело вставать на закачку!
 
Автор Сообщение

HUNTER

Стаж:
4 года 7 месяцев
Сообщений:
61460

Репутация: 101

[+] [-]
Вне форума [Профиль] [ЛС]

Голодные игры / The Hunger Games-
Страна: USA / США
Жанр: боевик, приключения
Год выпуска: 2012
Продолжительность: 02:22:33
Перевод: Профессиональный (дублированный)
Cубтитры: русские, английские
Оригинальная аудиодорожка: английский
Режиссер: Гэри Росс / Gary Ross
В ролях: Дженнифер Лоуренс (Katniss Everdeen), Джош Хатчерсон (Peeta Mellark), Лиам Хемсворт (Gale Hawthorne), Элизабет Бэнкс (Effie Trinket), Вуди Харрельсон (Haymitch Abernathy), Стэнли Туччи (Caesar Flickerman), Ленни Кравиц (Cinna), Уэс Бентли (Seneca Crane), Дональд Сазерленд (President Snow), Тоби Джонс (Claudius Templesmith).-Описание: Будущее. Деспотичное государство ежегодно устраивает показательные игры на выживание, за которыми в прямом эфире следит весь мир. Жребий участвовать в Играх выпадает юной Китнисс и тайно влюбленному в нее Питу. Они знакомы с детства, но теперь должны стать врагами. Ведь по нерушимому закону Голодных игр победить может только один из 24 участников. Судьям не важно кто выиграет, главное — зрелище. И на этот раз зрелище будет незабываемым.-Доп. информация: Encode: raphaex@DON-Sample-Тип релиза: BDRip 720p
Контейнер: MKV
Видео: AVC, 1280x534, 2.40:1, 9000 Kbps, 23.976 fps
Аудио: Russian (полное дублирование), AC3, 640 Kbps, 48.0 KHz, 6 Ch.
Аудио 2: English (original), AC3, 640 Kbps, 48.0 KHz, 6 Ch.
Субтитры: Russian
Субтитры 2: English
Формат субтитров: softsub (SRT)

MediaInfo

GeneralUnique ID : 237378362195653329562157742309704718449 (0xB29568DAE79AFD14AFDF57D6FA27D871)Complete name : S:\Viks Collection Movies\2012\Hunger Games.mkvFormat : MatroskaFormat version : Version 2File size : 10.2 GiBDuration : 2h 22mnOverall bit rate : 10.3 MbpsMovie name : The Hunger Games (2012) - HQ-ViDEOEncoded date : UTC 2012-08-19 18:22:19Writing application : mkvmerge v5.7.0 ('The Whirlwind') built on Jul 8 2012 20:08:51Writing library : libebml v1.2.3 + libmatroska v1.3.0
VideoID : 1Format : AVCFormat/Info : Advanced Video CodecFormat profile : High@L4.1Format settings, CABAC : YesFormat settings, ReFrames : 4 framesCodec ID : V_MPEG4/ISO/AVCDuration : 2h 22mnBit rate : 9 000 KbpsWidth : 1 280 pixelsHeight : 534 pixelsDisplay aspect ratio : 2.40:1Frame rate mode : ConstantFrame rate : 23.976 fpsColor space : YUVChroma subsampling : 4:2:0Bit depth : 8 bitsScan type : ProgressiveBits/(Pixel*Frame) : 0.549Stream size : 8.76 GiB (86%)Title : Encode: raphaex@DONWriting library : x264 core 116 r2057 0ba8a9cEncoding settings : cabac=1 / ref=4 / deblock=1:-3:-3 / analyse=0x3:0x133 / me=umh / subme=10 / psy=1 / psy_rd=1.00:0.00 / mixed_ref=1 / me_range=32 / chroma_me=1 / trellis=2 / 8x8dct=1 / cqm=0 / deadzone=21,11 / fast_pskip=0 / chroma_qp_offset=-2 / threads=14 / sliced_threads=0 / nr=0 / decimate=0 / interlaced=0 / bluray_compat=0 / constrained_intra=0 / bframes=7 / b_pyramid=2 / b_adapt=2 / b_bias=0 / direct=3 / weightb=1 / open_gop=0 / weightp=2 / keyint=250 / keyint_min=23 / scenecut=40 / intra_refresh=0 / rc_lookahead=40 / rc=2pass / mbtree=0 / bitrate=9000 / ratetol=1.0 / qcomp=0.65 / qpmin=0 / qpmax=40 / qpstep=4 / cplxblur=20.0 / qblur=0.5 / vbv_maxrate=50000 / vbv_bufsize=50000 / nal_hrd=none / ip_ratio=1.25 / pb_ratio=1.25 / aq=1:0.65Language : EnglishDefault : YesForced : No
Audio #1ID : 2Format : AC-3Format/Info : Audio Coding 3Mode extension : CM (complete main)Format settings, Endianness : BigCodec ID : A_AC3Duration : 2h 22mnBit rate mode : ConstantBit rate : 640 KbpsChannel(s) : 6 channelsChannel positions : Front: L C R, Side: L R, LFESampling rate : 48.0 KHzBit depth : 16 bitsCompression mode : LossyStream size : 653 MiB (6%)Title : DUB@BD-RUSLanguage : RussianDefault : YesForced : Yes
Audio #2ID : 3Format : AC-3Format/Info : Audio Coding 3Mode extension : CM (complete main)Format settings, Endianness : BigCodec ID : A_AC3Duration : 2h 22mnBit rate mode : ConstantBit rate : 640 KbpsChannel(s) : 6 channelsChannel positions : Front: L C R, Side: L R, LFESampling rate : 48.0 KHzBit depth : 16 bitsCompression mode : LossyStream size : 653 MiB (6%)Title : OriginalLanguage : EnglishDefault : NoForced : No
Text #1ID : 4Format : UTF-8Codec ID : S_TEXT/UTF8Codec ID/Info : UTF-8 Plain TextTitle : BD-RUSLanguage : RussianDefault : NoForced : No
Text #2ID : 5Format : UTF-8Codec ID : S_TEXT/UTF8Codec ID/Info : UTF-8 Plain TextLanguage : EnglishDefault : NoForced : No
Text #3ID : 6Format : UTF-8Codec ID : S_TEXT/UTF8Codec ID/Info : UTF-8 Plain TextTitle : SDHLanguage : EnglishDefault : NoForced : No
Menu00:00:00.000 : en:00:00:00.00000:10:05.814 : en:00:10:05.81400:18:00.079 : en:00:18:00.07900:25:05.879 : en:00:25:05.87900:31:12.662 : en:00:31:12.66200:43:28.564 : en:00:43:28.56400:50:38.702 : en:00:50:38.70200:56:58.915 : en:00:56:58.91501:06:57.764 : en:01:06:57.76401:15:58.971 : en:01:15:58.97101:22:06.046 : en:01:22:06.04601:29:00.418 : en:01:29:00.41801:38:00.750 : en:01:38:00.75001:43:19.193 : en:01:43:19.19301:57:56.611 : en:01:57:56.61102:09:26.550 : en:02:09:26.550

Скриншоты


_________________
Показать сообщения:    

Текущее время: Сегодня 06:04

Часовой пояс: GMT



Вы не можете начинать темы
Вы не можете отвечать на сообщения
Вы не можете редактировать свои сообщения
Вы не можете удалять свои сообщения
Вы не можете голосовать в опросах
Вы не можете прикреплять файлы к сообщениям
Вы не можете скачивать файлы
Наши партнеры: интернет магазин Ивановского трикотажа textilla.ru