Ивановский Торрент трекер
Яндекс.Погода
 

[Цитировать]
HUNTER


Голoволомка | Inside Оut
«Нет слов, одни эмоции»
Локализованный видеоряд
- Страна: США | Pixar Animation Studios
Жанр: комедия, семейный
Продолжительность: 01:34:49
Перевод: профессиональный полное дублирование Blu-ray CEE | Disney / Buena Vista
Оригинал: английский
Год выпуска: 2015
Русские субтитры: Rus, Fre, Eng (Full, SDH)-Режиссёр: Пит Доктeр, Рoналдо Дель Кармен / Pete Dоcter, Rоnnie Del Carmen
Роли озвучивали: Льюис Блэк, Минди Кейлинг, Билл Хейдер, Эми Полер, Филлис Смит, Ричард Кайнд, Кейтлин Диас, Дайан Лэйн, Кайл МакЛоклен, Пола Паундстон-ОписаниеРайли — обычная 11-летняя школьница, и, как у каждого из нас, ее поведение определяют пять базовых эмоций: Радость, Печаль, Страх, Гнев и Брезгливость. Эмоции живут в сознании девочки и каждый день помогают ей справляться с проблемами, руководя всеми ее поступками. До поры до времени эмоции живут дружно, но вдруг оказывается, что Райли и ее родителям предстоит переезд из небольшого уютного городка в шумный и людный мегаполис. Каждая из эмоций считает, что именно она лучше прочих знает, что нужно делать в этой непростой ситуации, и в голове у девочки наступает полная неразбериха. Чтобы наладить жизнь в большом городе, освоиться в новой школе и подружиться с одноклассниками, эмоциям Райли предстоит снова научиться работать сообща.-
«Головоло́мка» (англ. Inside Out, дословно — «Наизнанку») — 3D-анимационный комедийно-драматический фильм студии Pixar. Фильм основан на оригинальной идее Пита Доктера
Релиз:

Сэмпл
Топ250: 91
IMDb: 8.4 (126 006) Топ250: 67
Качество: BDRip 1080p Blu-ray Disc 1080p [Двухдисковое издание] [CEE]
Формат: MKV
Видео: AVC 11.6 Mbps 1920 x 1080 (1.778) 23.976 fps
Аудио: AC-3 640 Kbps 6 channels, 48.0 KHz DUB Blu-ray CEE
Аудио 2: DTS 1509 Kbps 6 channels, 48.0 KHz DUB Disney / Buena Vista Ukr
Аудио 3: DTS 1509 Kbps 6 channels, 48.0 KHz 48.0 KHz Eng
Аудио 3: AC-3 320 Kbps 2 channels, 48.0 KHz Eng Comentary
Субтитры: Rus, Fre, Eng (Full, SDH)

MI | Log

Log
x264 [info]: frame I:1339 Avg QP:13.15 size:291792
x264 [info]: frame P:39504 Avg QP:14.39 size:104937
x264 [info]: frame B:95576 Avg QP:16.32 size: 41227
x264 [info]: consecutive B-frames: 6.6% 2.8% 19.0% 36.8% 20.8% 12.3% 0.6% 0.3% 0.7%
x264 [info]: mb I I16..4: 24.5% 58.8% 16.7%
x264 [info]: mb P I16..4: 7.6% 17.2% 2.6% P16..4: 29.2% 25.1% 8.6% 1.6% 0.2% skip: 7.8%
x264 [info]: mb B I16..4: 5.4% 3.6% 0.7% B16..8: 35.3% 15.8% 2.6% direct: 5.1% skip:31.5% L0:46.1% L1:39.2% BI:14.6%
x264 [info]: 8x8 transform intra:51.3% inter:51.6%
x264 [info]: direct mvs spatial:99.9% temporal:0.1%
x264 [info]: coded y,uvDC,uvAC intra: 62.6% 92.5% 83.9% inter: 21.4% 30.9% 11.8%
x264 [info]: i16 v,h,dc,p: 65% 7% 14% 15%
x264 [info]: i8 v,h,dc,ddl,ddr,vr,hd,vl,hu: 12% 13% 20% 7% 8% 8% 9% 9% 12%
x264 [info]: i4 v,h,dc,ddl,ddr,vr,hd,vl,hu: 16% 12% 41% 4% 6% 6% 6% 4% 6%
x264 [info]: i8c dc,h,v,p: 55% 20% 13% 13%
x264 [info]: Weighted P-Frames: Y:3.4% UV:1.7%
x264 [info]: ref P L0: 62.3% 9.3% 18.8% 7.4% 2.1% 0.1%
x264 [info]: ref B L0: 90.2% 7.8% 2.0%
x264 [info]: ref B L1: 94.8% 5.2%
x264 [info]: kb/s:11918.14
x264 [total]: encoded 136419 frames, 4.35 fps, 11918.14 kb/s, duration 8:42:24.00
Format : Matroska
Format version : Version 4 / Version 2
File size : 10.5 GiB
Duration : 1h 34mn
Overall bit rate : 15.9 Mbps
Encoded date : UTC 2015-11-06 22:57:43
Writing application : mkvmerge v6.7.0 ('Back to the Ground') 32bit built on Jan 8 2014 15:03:17
Writing library : libebml v1.3.0 + libmatroska v1.4.1
Video
ID : 1
Format : AVC
Format/Info : Advanced Video Codec
Format profile : High@L4.1
Format settings, CABAC : Yes
Format settings, ReFrames : 4 frames
Codec ID : V_MPEG4/ISO/AVC
Duration : 1h 34mn
Bit rate : 11.6 Mbps
Width : 1 920 pixels
Height : 1 080 pixels
Display aspect ratio : 16:9
Frame rate mode : Constant
Frame rate : 23.976 fps
Color space : YUV
Chroma subsampling : 4:2:0
Bit depth : 8 bits
Scan type : Progressive
Bits/(Pixel*Frame) : 0.233
Stream size : 7.69 GiB (73%)
Title : Inside Out (2015) 1080p [rutracker.org]
Writing library : x264 core 148 r2579kMod 73ae2d1
Encoding settings : cabac=1 / ref=4 / deblock=1:-3:-2 / analyse=0x3:0x133 / me=umh / subme=11 / psy=1 / fade_compensate=0.00 / psy_rd=1.00:0.05 / mixed_ref=1 / me_range=32 / chroma_me=1 / trellis=2 / 8x8dct=1 / cqm=0 / deadzone=21,11 / fast_pskip=0 / chroma_qp_offset=-3 / threads=12 / lookahead_threads=2 / sliced_threads=0 / nr=0 / decimate=1 / interlaced=0 / bluray_compat=0 / constrained_intra=0 / fgo=0 / bframes=8 / b_pyramid=2 / b_adapt=2 / b_bias=0 / direct=3 / weightb=1 / open_gop=0 / weightp=2 / keyint=250 / keyint_min=23 / scenecut=40 / intra_refresh=0 / rc_lookahead=60 / rc=crf / mbtree=0 / crf=17.3000 / qcomp=0.60 / qpmin=0 / qpmax=69 / qpstep=4 / vbv_maxrate=50000 / vbv_bufsize=62500 / crf_max=0.0 / nal_hrd=none / filler=0 / ip_ratio=1.40 / pb_ratio=1.30 / aq=3:0.90
Language : English
Default : Yes
Forced : No
Audio #1
ID : 2
Format : AC-3
Format/Info : Audio Coding 3
Mode extension : CM (complete main)
Format settings, Endianness : Big
Codec ID : A_AC3
Duration : 1h 34mn
Bit rate mode : Constant
Bit rate : 640 Kbps
Channel(s) : 6 channels
Channel positions : Front: L C R, Side: L R, LFE
Sampling rate : 48.0 KHz
Compression mode : Lossy
Stream size : 434 MiB (4%)
Title : DUB Blu-ray CEE
Language : Russian
Default : Yes
Forced : No
Audio #2
ID : 3
Format : DTS
Format/Info : Digital Theater Systems
Mode : 16
Format settings, Endianness : Big
Codec ID : A_DTS
Duration : 1h 34mn
Bit rate mode : Constant
Bit rate : 1 509 Kbps
Channel(s) : 6 channels
Channel positions : Front: L C R, Side: L R, LFE
Sampling rate : 48.0 KHz
Bit depth : 24 bits
Compression mode : Lossy
Stream size : 1 024 MiB (9%)
Title : DUB Disney / Buena Vista
Language : Ukrainian
Default : No
Forced : No
Audio #3
ID : 4
Format : DTS
Format/Info : Digital Theater Systems
Mode : 16
Format settings, Endianness : Big
Codec ID : A_DTS
Duration : 1h 34mn
Bit rate mode : Constant
Bit rate : 1 509 Kbps
Channel(s) : 6 channels
Channel positions : Front: L C R, Side: L R, LFE
Sampling rate : 48.0 KHz
Bit depth : 24 bits
Compression mode : Lossy
Stream size : 1 024 MiB (9%)
Title : Original
Language : English
Default : No
Forced : No
Audio #4
ID : 5
Format : AC-3
Format/Info : Audio Coding 3
Mode extension : CM (complete main)
Format settings, Endianness : Big
Codec ID : A_AC3
Duration : 1h 34mn
Bit rate mode : Constant
Bit rate : 320 Kbps
Channel(s) : 2 channels
Channel positions : Front: L R
Sampling rate : 48.0 KHz
Compression mode : Lossy
Stream size : 217 MiB (2%)
Title : Comentary
Language : English
Default : No
Forced : No
Text #1
ID : 6
Format : UTF-8
Codec ID : S_TEXT/UTF8
Codec ID/Info : UTF-8 Plain Text
Title : Full
Language : Russian
Default : No
Forced : No
Text #2
ID : 7
Format : UTF-8
Codec ID : S_TEXT/UTF8
Codec ID/Info : UTF-8 Plain Text
Title : Full
Language : French
Default : No
Forced : No
Text #3
ID : 8
Format : UTF-8
Codec ID : S_TEXT/UTF8
Codec ID/Info : UTF-8 Plain Text
Title : Full
Language : English
Default : No
Forced : No
Text #4
ID : 9
Format : UTF-8
Codec ID : S_TEXT/UTF8
Codec ID/Info : UTF-8 Plain Text
Title : SDH
Language : English
Default : No
Forced : No
Text #5
ID : 10
Format : UTF-8
Codec ID : S_TEXT/UTF8
Codec ID/Info : UTF-8 Plain Text
Title : SDH Comentary
Language : English
Default : No
Forced : No
Menu
00:00:00.000 : ru:Chapter 1
00:07:22.692 : ru:Chapter 2
00:11:36.779 : ru:Chapter 3
00:15:46.403 : ru:Chapter 4
00:20:02.242 : ru:Chapter 5
00:25:21.436 : ru:Chapter 6
00:26:47.063 : ru:Chapter 7
00:30:10.183 : ru:Chapter 8
00:34:45.791 : ru:Chapter 9
00:36:02.285 : ru:Chapter 10
00:37:45.304 : ru:Chapter 11
00:41:27.359 : ru:Chapter 12
00:43:35.612 : ru:Chapter 13
00:45:19.508 : ru:Chapter 14
00:46:51.850 : ru:Chapter 15
00:50:02.457 : ru:Chapter 16
00:51:34.341 : ru:Chapter 17
00:56:12.160 : ru:Chapter 18
01:00:03.683 : ru:Chapter 19
01:01:17.840 : ru:Chapter 20
01:03:50.367 : ru:Chapter 21
01:06:27.191 : ru:Chapter 22
01:11:15.771 : ru:Chapter 23
01:13:40.540 : ru:Chapter 24
01:15:38.658 : ru:Chapter 25
01:20:00.336 : ru:Chapter 26
01:23:57.198 : ru:Chapter 27
01:26:18.339 : ru:Chapter 28[/pre]

Скриншоты



Локализация



Показать сообщения:    

Текущее время: 25-Сен 19:31

Часовой пояс: UTC - 1


Вы не можете начинать темы
Вы не можете отвечать на сообщения
Вы не можете редактировать свои сообщения
Вы не можете удалять свои сообщения
Вы не можете голосовать в опросах
Вы не можете прикреплять файлы к сообщениям
Вы не можете скачивать файлы

!ВНИМАНИЕ!
Сайт не предоставляет электронные версии произведений, а занимается лишь коллекционированием и каталогизацией ссылок, присылаемых и публикуемых на форуме нашими читателями. Если вы являетесь правообладателем какого-либо представленного материала и не желаете, чтобы ссылка на него находилась в нашем каталоге, свяжитесь с нами, и мы незамедлительно удалим ее. Файлы для обмена на трекере предоставлены пользователями сайта, и администрация не несет ответственности за их содержание. Просьба не заливать файлы, защищенные авторскими правами, а также файлы нелегального содержания!