Важное объявление!
У Нас Все раздачи мультитрекерные, при нуле пиров в релизах, можете смело вставать на закачку!
Статистика раздачи
Размер:     |    Зарегистрирован:     |    Скачан:     |   
Нет
 
     
 
 
Автор Сообщение

HUNTER

Стаж:
5 лет 1 месяц
Сообщений:
68449

Репутация: 101

[+] [-]
Вне форума [Профиль] [ЛС]


Голoволомка | Inside Оut
«Нет слов, одни эмоции»
-
Страна: США | Pixar Animation Studios
Жанр: комедия, семейный
Продолжительность: 01:34:34
Перевод: профессиональный полное дублирование iTunes
Оригинал: английский
Год выпуска: 2015
Русские субтитры: Rus, Fre, Eng (Full, SDH)-Режиссёр: Пит Доктeр, Рoналдо Дель Кармен / Pete Dоcter, Rоnnie Del Carmen
Роли озвучивали: Льюис Блэк, Минди Кейлинг, Билл Хейдер, Эми Полер, Филлис Смит, Ричард Кайнд, Кейтлин Диас, Дайан Лэйн, Кайл МакЛоклен, Пола Паундстон-ОписаниеРайли — обычная 11-летняя школьница, и, как у каждого из нас, ее поведение определяют пять базовых эмоций: Радость, Печаль, Страх, Гнев и Брезгливость. Эмоции живут в сознании девочки и каждый день помогают ей справляться с проблемами, руководя всеми ее поступками. До поры до времени эмоции живут дружно, но вдруг оказывается, что Райли и ее родителям предстоит переезд из небольшого уютного городка в шумный и людный мегаполис. Каждая из эмоций считает, что именно она лучше прочих знает, что нужно делать в этой непростой ситуации, и в голове у девочки наступает полная неразбериха. Чтобы наладить жизнь в большом городе, освоиться в новой школе и подружиться с одноклассниками, эмоциям Райли предстоит снова научиться работать сообща.-
«Головоло́мка» (англ. Inside Out, дословно — «Наизнанку») — 3D-анимационный комедийно-драматический фильм студии Pixar. Фильм основан на оригинальной идее Пита Доктера
Релиз:

Сэмпл
Топ250: 76
IMDb: 8.50 (126 006)
Качество: BDRip-AVC INSIDE_OUT_2D_BLUEBIRD
Формат: MKV
Видео: AVC 3418 Kbps 1152 x 648 (1.778) 23.976 fps
Аудио: AC-3 384 Kbps 6 channels, 48.0 KHz DUB iTunes
Аудио 2: AC-3 384 Kbps 6 channels, 48.0 KHz DUB iTunes Ukr
Аудио 3: AC-3 448 Kbps 6 channels, 48.0 KHz Eng
Субтитры: Rus, Fre, Eng (Full, SDH)

MI | Log

Log
x264 [info]: frame I:1309 Avg QP:14.66 size:117761
x264 [info]: frame P:34517 Avg QP:16.13 size: 35453
x264 [info]: frame B:100306 Avg QP:18.70 size: 11160
x264 [info]: consecutive B-frames: 3.6% 3.4% 12.9% 37.6% 17.0% 17.9% 2.0% 2.2% 2.2% 0.4% 0.2% 0.2% 0.5%
x264 [info]: mb I I16..4: 8.4% 69.3% 22.3%
x264 [info]: mb P I16..4: 2.1% 12.0% 1.9% P16..4: 27.4% 29.4% 11.8% 2.4% 0.3% skip:12.6%
x264 [info]: mb B I16..4: 0.7% 1.6% 0.2% B16..8: 28.3% 17.1% 3.4% direct: 4.5% skip:44.1% L0:41.1% L1:44.2% BI:14.7%
x264 [info]: 8x8 transform intra:70.7% inter:55.8%
x264 [info]: direct mvs spatial:99.8% temporal:0.2%
x264 [info]: coded y,uvDC,uvAC intra: 77.6% 90.7% 81.0% inter: 16.9% 20.4% 9.7%
x264 [info]: i16 v,h,dc,p: 56% 12% 5% 27%
x264 [info]: i8 v,h,dc,ddl,ddr,vr,hd,vl,hu: 11% 12% 11% 9% 11% 10% 12% 11% 14%
x264 [info]: i4 v,h,dc,ddl,ddr,vr,hd,vl,hu: 12% 11% 12% 7% 13% 11% 13% 9% 12%
x264 [info]: i8c dc,h,v,p: 41% 24% 16% 19%
x264 [info]: Weighted P-Frames: Y:2.4% UV:1.6%
x264 [info]: ref P L0: 53.2% 9.8% 15.1% 5.8% 4.2% 3.4% 2.7% 1.5% 1.4% 1.3% 1.3% 0.3% 0.0%
x264 [info]: ref B L0: 73.3% 10.8% 5.6% 3.0% 2.3% 1.8% 1.5% 0.9% 0.6% 0.3%
x264 [info]: ref B L1: 92.9% 7.1%
x264 [info]: kb/s:3518.65
x264 [total]: encoded 136132 frames, 8.33 fps, 3518.65 kb/s, duration 4:32:19.31
Format : Matroska
Format version : Version 4 / Version 2
File size : 3.13 GiB
Duration : 1h 34mn
Overall bit rate : 4 728 Kbps
Encoded date : UTC 2015-10-20 12:27:44
Writing application : mkvmerge v6.7.0 ('Back to the Ground') 32bit built on Jan 8 2014 15:03:17
Writing library : libebml v1.3.0 + libmatroska v1.4.1
Video
ID : 1
Format : AVC
Format/Info : Advanced Video Codec
Format profile : High@L4.1
Format settings, CABAC : Yes
Format settings, ReFrames : 11 frames
Codec ID : V_MPEG4/ISO/AVC
Duration : 1h 34mn
Bit rate : 3 418 Kbps
Width : 1 152 pixels
Height : 648 pixels
Display aspect ratio : 16:9
Frame rate mode : Constant
Frame rate : 23.976 fps
Color space : YUV
Chroma subsampling : 4:2:0
Bit depth : 8 bits
Scan type : Progressive
Bits/(Pixel*Frame) : 0.191
Stream size : 2.26 GiB (72%)
Title : Inside Out (2015) [rutracker.org]
Writing library : x264 core 148 r2579kMod 73ae2d1
Encoding settings : cabac=1 / ref=11 / deblock=1:-2:-1 / analyse=0x3:0x133 / me=umh / subme=11 / psy=1 / fade_compensate=0.00 / psy_rd=1.00:0.05 / mixed_ref=1 / me_range=32 / chroma_me=1 / trellis=2 / 8x8dct=1 / cqm=0 / deadzone=21,11 / fast_pskip=0 / chroma_qp_offset=-3 / threads=12 / lookahead_threads=3 / sliced_threads=0 / nr=0 / decimate=1 / interlaced=0 / bluray_compat=0 / constrained_intra=0 / fgo=0 / bframes=12 / b_pyramid=2 / b_adapt=2 / b_bias=0 / direct=3 / weightb=1 / open_gop=0 / weightp=2 / keyint=250 / keyint_min=23 / scenecut=40 / intra_refresh=0 / rc_lookahead=80 / rc=crf / mbtree=0 / crf=17.3000 / qcomp=0.60 / qpmin=0 / qpmax=69 / qpstep=4 / vbv_maxrate=50000 / vbv_bufsize=62500 / crf_max=0.0 / nal_hrd=none / filler=0 / ip_ratio=1.40 / pb_ratio=1.30 / aq=3:0.90
Language : English
Default : Yes
Forced : No
Audio #1
ID : 2
Format : AC-3
Format/Info : Audio Coding 3
Mode extension : CM (complete main)
Format settings, Endianness : Big
Codec ID : A_AC3
Duration : 1h 34mn
Bit rate mode : Constant
Bit rate : 384 Kbps
Channel(s) : 6 channels
Channel positions : Front: L C R, Side: L R, LFE
Sampling rate : 48.0 KHz
Compression mode : Lossy
Stream size : 261 MiB (8%)
Title : DUB [iTunes]
Language : Russian
Default : Yes
Forced : No
Audio #2
ID : 3
Format : AC-3
Format/Info : Audio Coding 3
Mode extension : CM (complete main)
Format settings, Endianness : Big
Codec ID : A_AC3
Duration : 1h 34mn
Bit rate mode : Constant
Bit rate : 384 Kbps
Channel(s) : 6 channels
Channel positions : Front: L C R, Side: L R, LFE
Sampling rate : 48.0 KHz
Compression mode : Lossy
Stream size : 261 MiB (8%)
Title : DUB [iTunes]
Language : Ukrainian
Default : No
Forced : No
Audio #3
ID : 4
Format : AC-3
Format/Info : Audio Coding 3
Mode extension : CM (complete main)
Format settings, Endianness : Big
Codec ID : A_AC3
Duration : 1h 34mn
Bit rate mode : Constant
Bit rate : 448 Kbps
Channel(s) : 6 channels
Channel positions : Front: L C R, Side: L R, LFE
Sampling rate : 48.0 KHz
Compression mode : Lossy
Stream size : 304 MiB (9%)
Title : Original
Language : English
Default : No
Forced : No
Text #1
ID : 5
Format : UTF-8
Codec ID : S_TEXT/UTF8
Codec ID/Info : UTF-8 Plain Text
Title : Full
Language : Russian
Default : No
Forced : No
Text #2
ID : 6
Format : UTF-8
Codec ID : S_TEXT/UTF8
Codec ID/Info : UTF-8 Plain Text
Title : Full
Language : French
Default : No
Forced : No
Text #3
ID : 7
Format : UTF-8
Codec ID : S_TEXT/UTF8
Codec ID/Info : UTF-8 Plain Text
Title : Full
Language : English
Default : No
Forced : No
Text #4
ID : 8
Format : UTF-8
Codec ID : S_TEXT/UTF8
Codec ID/Info : UTF-8 Plain Text
Title : SDH
Language : English
Default : No
Forced : No
Menu
00:00:00.000 : en:00:00:00.000
00:07:22.692 : en:00:07:22.692
00:11:36.779 : en:00:11:36.779
00:15:46.404 : en:00:15:46.404
00:20:02.243 : en:00:20:02.243
00:25:21.437 : en:00:25:21.437
00:26:47.064 : en:00:26:47.064
00:30:10.183 : en:00:30:10.183
00:34:45.792 : en:00:34:45.792
00:36:02.285 : en:00:36:02.285
00:37:45.305 : en:00:37:45.305
00:41:27.360 : en:00:41:27.360
00:43:35.613 : en:00:43:35.613
00:45:19.508 : en:00:45:19.508
00:46:51.851 : en:00:46:51.851
00:50:02.458 : en:00:50:02.458
00:51:34.341 : en:00:51:34.341
00:56:12.160 : en:00:56:12.160
01:00:03.683 : en:01:00:03.683
01:01:17.841 : en:01:01:17.841
01:03:50.368 : en:01:03:50.368
01:06:27.192 : en:01:06:27.192
01:11:15.771 : en:01:11:15.771
01:13:40.541 : en:01:13:40.541
01:15:38.659 : en:01:15:38.659
01:20:00.337 : en:01:20:00.337
01:23:57.199 : en:01:23:57.199
01:26:18.340 : en:01:26:18.340[/pre]

Скриншоты





_________________
Показать сообщения:    

Текущее время: Сегодня 19:20

Часовой пояс: GMT



Вы не можете начинать темы
Вы не можете отвечать на сообщения
Вы не можете редактировать свои сообщения
Вы не можете удалять свои сообщения
Вы не можете голосовать в опросах
Вы не можете прикреплять файлы к сообщениям
Вы не можете скачивать файлы