Головоломка / Inside Out (Пит Доктер / Pete Docter, Роналдо Дель Кармен / Ronnie Del Carmen) [2015, мультфильм, комедия, семейный, BDRip-720p] Dub + UKR + Eng + Sub (rus, eng) :: Ивановский Торрент трекер
Важное объявление!
У Нас Все раздачи мультитрекерные, при нуле пиров в релизах, можете смело вставать на закачку!
Статистика раздачи
Размер:     |    Зарегистрирован:     |    Скачан:     |   
Нет
 
     
 
 
Автор Сообщение

HUNTER

Стаж:
4 года 11 месяцев
Сообщений:
66112

Репутация: 101

[+] [-]
Вне форума [Профиль] [ЛС]

Головоломка / Inside Out
-
Страна : США
Жанр : мультфильм, комедия, семейный
Производство : Pixar Animation Studios, Walt Disney Pictures
Продолжительность : 01:34:50
Год выпуска : 2015
Перевод : Профессиональный (дублированный)
Русские субтитры : есть
Режиссёр : Пит Доктер / Pete Docter, Роналдо Дель Кармен / Ronnie Del Carmen
Роли озвучивали : Эми Полер, Филлис Смит, Ричард Кайнд, Билл Хейдер, Льюис Блэк, Минди Кейлинг, Кейтлин Диас, Дайан Лэйн, Кайл МакЛоклен, Пола Паундстон
-

-
«Нет слов, одни эмоции»
Описание : Райли — обычная 11-летняя школьница, и, как у каждого из нас, ее поведение определяют пять базовых эмоций: Радость, Печаль, Страх, Гнев и Брезгливость. Эмоции живут в сознании девочки и каждый день помогают ей справляться с проблемами, руководя всеми ее поступками. До поры до времени эмоции живут дружно, но вдруг оказывается, что Райли и ее родителям предстоит переезд из небольшого уютного городка в шумный и людный мегаполис. Каждая из эмоций считает, что именно она лучше прочих знает, что нужно делать в этой непростой ситуации, и в голове у девочки наступает полная неразбериха. Чтобы наладить жизнь в большом городе, освоиться в новой школе и подружиться с одноклассниками, эмоциям Райли предстоит снова научиться работать сообща.
-

-
Релиз : Scarabey
Качество : BDRip-720p
Формат : MKV
Видео : AVC, 1280x720 (16:9), 23.976 fps, 3895 kbps avg, 0.176 bit/pixel
Аудио 1 : Русский, AC3, 48.0 kHz, 6 ch, 448 kbps (Дублированный)
Аудио 2 : Украинский, AC3, 48.0 kHz, 6 ch, 384 kbps (Дублированный)
Аудио 3 : Английский, AC3, 48.0 kHz, 6 ch, 448 kbps (Оригинал)
Субтитры (srt): Русские, Английские
-

MediaInfo

General Unique ID : 205644445609450142350391739841557698579 (0x9AB5ADF84638C057B8462A71F5E21813) Complete name : E:/Torrent_2/Inside Out (2015, BDRip-720p, RUS UKR ENG+SUB).mkv Format : Matroska Format version : Version 4 / Version 2 File size : 3.50 GiB Duration : 1h 34mn Overall bit rate : 5 280 Kbps Encoded date : UTC 2015-10-31 14:08:31 Writing application : mkvmerge v6.1.0 ('Old Devil') built on Mar 4 2013 09:10:42 Writing library : libebml v1.3.0 + libmatroska v1.4.0
Video #1 ID : 1 Format : AVC Format/Info : Advanced Video Codec Format profile : High@L4.1 Format settings, CABAC : Yes Format settings, ReFrames : 9 frames Codec ID : V_MPEG4/ISO/AVC Duration : 1h 34mn Bit rate : 3 895 Kbps Width : 1 280 pixels Height : 720 pixels Display aspect ratio : 16:9 Frame rate mode : Constant Frame rate : 23.976 fps Color space : YUV Chroma subsampling : 4:2:0 Bit depth : 8 bits Scan type : Progressive Bits/(Pixel*Frame) : 0.176 Stream size : 2.58 GiB (74%) Writing library : x264 core 142 r2431+42 c69a006 tMod [8-bit@4:2:0 X86_64] Encoding settings : cabac=1 / ref=9 / deblock=1:-3:-3 / analyse=0x3:0x113 / me=umh / subme=11 / psy=1 / fade_compensate=0.00 / psy_rd=0.60:0.05 / mixed_ref=1 / me_range=32 / chroma_me=1 / trellis=2 / 8x8dct=1 / cqm=0 / deadzone=21,11 / fast_pskip=0 / chroma_qp_offset=-2 / threads=12 / lookahead_threads=2 / sliced_threads=0 / nr=0 / decimate=1 / interlaced=0 / bluray_compat=0 / constrained_intra=0 / fgo=0 / bframes=8 / b_pyramid=2 / b_adapt=2 / b_bias=0 / direct=3 / weightb=1 / open_gop=0 / weightp=2 / keyint=250 / keyint_min=23 / scenecut=40 / intra_refresh=0 / rc_lookahead=40 / rc=crf / mbtree=0 / crf=17.0000 / qcomp=0.60 / qpmin=0:0:0 / qpmax=69:69:69 / qpstep=4 / vbv_maxrate=30000 / vbv_bufsize=30000 / crf_max=0.0 / nal_hrd=none / filler=0 / ip_ratio=1.40 / pb_ratio=1.30 / aq=3:0.80 / aq-sensitivity=10.00 / aq-factor=1.00:1.00:1.00 / aq2=0 / aq3=0 Language : English Default : Yes Forced : No Matrix coefficients : BT.709
Audio #2 ID : 2 Format : AC-3 Format/Info : Audio Coding 3 Mode extension : CM (complete main) Format settings, Endianness : Big Codec ID : A_AC3 Duration : 1h 34mn Bit rate mode : Constant Bit rate : 448 Kbps Channel(s) : 6 channels Channel positions : Front: L C R, Side: L R, LFE Sampling rate : 48.0 KHz Bit depth : 16 bits Compression mode : Lossy Stream size : 304 MiB (8%) Title : Дубляж - Лицензия Language : Russian Default : Yes Forced : No
Audio #3 ID : 3 Format : AC-3 Format/Info : Audio Coding 3 Mode extension : CM (complete main) Format settings, Endianness : Big Codec ID : A_AC3 Duration : 1h 34mn Bit rate mode : Constant Bit rate : 384 Kbps Channel(s) : 6 channels Channel positions : Front: L C R, Side: L R, LFE Sampling rate : 48.0 KHz Bit depth : 16 bits Compression mode : Lossy Stream size : 261 MiB (7%) Title : Дубляж, украинский Language : Ukrainian Default : No Forced : No
Audio #4 ID : 4 Format : AC-3 Format/Info : Audio Coding 3 Mode extension : CM (complete main) Format settings, Endianness : Big Codec ID : A_AC3 Duration : 1h 34mn Bit rate mode : Constant Bit rate : 448 Kbps Channel(s) : 6 channels Channel positions : Front: L C R, Side: L R, LFE Sampling rate : 48.0 KHz Bit depth : 16 bits Compression mode : Lossy Stream size : 304 MiB (8%) Title : Оригинал Language : English Default : No Forced : No
Text #5 ID : 5 Format : UTF-8 Codec ID : S_TEXT/UTF8 Codec ID/Info : UTF-8 Plain Text Title : Русские, полные Language : Russian Default : Yes Forced : No
Text #6 ID : 6 Format : UTF-8 Codec ID : S_TEXT/UTF8 Codec ID/Info : UTF-8 Plain Text Title : Оригинал Language : English Default : No Forced : No

Скриншоты


Моя максимальная скорость отдачи 100КБ/c
Раздаю с 7:00 до 00:00 по Москве

_________________
Показать сообщения:    

Текущее время: Сегодня 22:54

Часовой пояс: GMT



Вы не можете начинать темы
Вы не можете отвечать на сообщения
Вы не можете редактировать свои сообщения
Вы не можете удалять свои сообщения
Вы не можете голосовать в опросах
Вы не можете прикреплять файлы к сообщениям
Вы не можете скачивать файлы