Ивановский Торрент трекер
Яндекс.Погода
 

[Цитировать]
HUNTER

Головоломка / Inside Out
Страна: США
Жанр: полнометражный мультфильм, детский, семейный, фантастика, приключения
Продолжительность: 01:34:50
Год выпуска: 2015
Перевод: Профессиональный (дублированный) BD CEE
Субтитры: Отсутствуют
Оригинальная аудиодорожка: нет
Режиссёры: Пит Доктер / Pete Docter, Роналдо Дель Кармен / Ronnie Del Carmen
Роли озвучивали: Дайан Лэйн, Эми Пехлер, Кайл Маклахлен, Минди Калинг, Билли Хадер, Филлис Смит, Льюис Блэк, Джесс Харнелл, Тереза Ганзел, Карлос Алазраки, Ларэйн Ньюман, Лори Алан, Пола Паундстоун, Боб Берген, Джон Циган, Дэнни Манн, Шерри Линн, Жан Рэбсон, Микки Макгоун, и др.
Роли дублировали: Олеся Железняк, Владимир Епифанцев, Максим Виторган, Ксения Собчак, Дмитрий Нагиев, Виктор Григорьев, и др.
Аннотация: Райли - обычная среднестатистическая одиннадцатилетняя американская школьница. Как и у многих из нас, её поведение определяют пять базовых эмоций: Радость, Печаль, Страх, Гнев и Брезгливость. Эмоции живут в сознании девочки, и каждый день помогают ей справляться с возникающими трудностями по мере их поступления, и руководят всеми её поступками. До поры до времени эмоции живут дружно, но вдруг Райли с родителями переезжает из привычного провинциального уюта - в огромный, шумный, многолюдный, безликий серый город... Впервые за всю жизнь, мир обрушился вокруг девочки. Мир обрушился и в её сознании, девочка погружается в уныние... Каждая из эмоций считает, что именно она лучше прочих знает, что нужно делать в этой непростой ситуации, и в голове у девочки наступает полная неразбериха, и девочка впадает в глубокую депрессию... Чтобы наладить жизнь на новом месте, освоиться в новой школе, подружиться с новыми одноклассниками, эмоциям Райли предстоит приложить немало усилий...

Качество: WEB-DLRip
Формат: AVI
Video: 720x400 (1.80:1), 23.976 fps, XviD build 50 ~891 kbps avg, 0.13 bit/pixel
Audio: 48 kHz, MPEG Layer 3, 2 ch, ~128.00 kbps avg

Подробные технические данные

AviInfo
File: Inside_Out_2015_WEB-DLRip_[rutracker.org].aviFilesize: 698.27 Mb ( 732 188 672 bytes )Play length: 01:34:50.393 (136433 frames)Subtitles: Not PresentVideo: 720x400 (1.80:1), 23.976 fps, XviD build 50 ~891 kbps avg, 0.13 bit/pixelAudio: 48 kHz, MPEG Layer 3, 2 ch, ~128.00 kbps avg

MediaInfo

ОбщееПолное имя : Р:\Inside_Out_2015_WEB-DLRip_[rutracker.org].aviФормат : AVIФормат/Информация : Audio Video InterleaveРазмер файла : 698 МбайтПродолжительность : 1 ч. 34 м.Общий поток : 1029 Кбит/секПрограмма кодирования : VirtualDubModRus 1.5.10.2 (build 2542/release)Библиотека кодирования : VirtualDubMod build 2542/release
ВидеоИдентификатор : 0Формат : MPEG-4 VisualПрофиль формата : Advanced Simple@L5Параметр BVOP формата : 2Параметр QPel формата : НетПараметр GMC формата : Без точки переходаПараметр матрицы формата : Default (MPEG)Идентификатор кодека : DX50Идентификатор кодека/Подсказка : DivX 5Продолжительность : 1 ч. 34 м.Битрейт : 892 Кбит/секШирина : 720 пикселейВысота : 400 пикселейСоотношение сторон : 16:9Частота кадров : 23,976 кадра/секЦветовое пространство : YUVСубдискретизация насыщенности : 4:2:0Битовая глубина : 8 битТип развёртки : ПрогрессивнаяМетод сжатия : С потерямиБит/(Пиксели*Кадры) : 0.129Размер потока : 605 Мбайт (87%)Библиотека кодирования : XviD 1.2.1 (UTC 2008-12-04)
АудиоИдентификатор : 1Формат : MPEG AudioВерсия формата : Version 1Профиль формата : Layer 3Режим : Joint stereoРасширение режима : MS StereoИдентификатор кодека : 55Идентификатор кодека/Подсказка : MP3Продолжительность : 1 ч. 34 м.Вид битрейта : ПостоянныйБитрейт : 128 Кбит/секКаналы : 2 каналаЧастота : 48,0 КГцМетод сжатия : С потерямиРазмер потока : 86,8 Мбайт (12%)Выравнивание : Соединение по промежуткамПродолжительность промежутка : 42 мс. (1,00 видеокадр)Время предзагрузки промежутка : 504 мс.Библиотека кодирования : LAME3.97Настройки программы : -m j -V 4 -q 2 -lowpass 17 -b 128

Скриншоты


Время раздачи - по возможности.
Показать сообщения:    

Текущее время: 21-Сен 11:34

Часовой пояс: UTC - 1


Вы не можете начинать темы
Вы не можете отвечать на сообщения
Вы не можете редактировать свои сообщения
Вы не можете удалять свои сообщения
Вы не можете голосовать в опросах
Вы не можете прикреплять файлы к сообщениям
Вы не можете скачивать файлы

!ВНИМАНИЕ!
Сайт не предоставляет электронные версии произведений, а занимается лишь коллекционированием и каталогизацией ссылок, присылаемых и публикуемых на форуме нашими читателями. Если вы являетесь правообладателем какого-либо представленного материала и не желаете, чтобы ссылка на него находилась в нашем каталоге, свяжитесь с нами, и мы незамедлительно удалим ее. Файлы для обмена на трекере предоставлены пользователями сайта, и администрация не несет ответственности за их содержание. Просьба не заливать файлы, защищенные авторскими правами, а также файлы нелегального содержания!