Ивановский Торрент трекер
Яндекс.Погода
 

[Цитировать]
HUNTER

Голая добыча / The Naked Prey
-Страна: ЮАР, США
Жанр: приключения, драма
Год выпуска: 1965
Продолжительность: 01:35:30-Перевод 1: Профессиональный (многоголосый закадровый)
Перевод 2: Одноголосый закадровый Александр Райдер-Cубтитры: русские, английские
Оригинальная аудиодорожка: английский-Режиссер: Корнел Уайлд / Cornel Wilde-В ролях: Корнел Уайлд, Герт Ван дер Берг, Кен Гампу, Белла Рэндлс, Моррисон Гампу, Джон Маркус, Эрик Мканвана, Санди Нкомо, Ричард Нашива, Франклин Мдхлули, Фузи Зазаиокве, Джо Дламини, Хосе Ситхоул, Хорас Гилма-Описание:
В Африку приезжают белые люди, чтобы отправиться на сафари. Они берут опытного проводника и дюжину аборигенов в качестве носильщиков. По дороге наши путешественники встречаются с дикарями из местного племени. Проводник просит охотников дать им немного подарков, чтобы задобрить вождя племени, на чьей территории они собираются охотиться, но белые люди гневно отказываются. Естественно, вскоре жадность дорого обходится нашим путешественникам: во время привала на них нападает племя дикарей и берет в плен. Последний оставшийся в живых проводник вынужден принять участие в охоте аборигенов на самого себя. Ему дают фору в несколько минут, после чего дикари бросаются за ним в погоню. Правда, аборигены даже предположить не могли, что проводник умеет ориентироваться на местности не хуже их, обладая, кроме того, сильным чувством выживания…--Сэмпл: Скачать-Тип релиза: BDRemux 1080p
Контейнер: MKV-Видео: MPEG-4 AVC Video; 34906 kbps; 1080p; 23.976 fps; 16:9; High Profile 4.1
Аудио 1: Russian; AC3; 48.0 KHz; 2ch; 192 Kbps MVO
Аудио 2: Russian; AC3; 48.0 KHz; 2ch; 192 Kbps VO
Аудио 3: English; FLAC; 48.0 KHz; 1ch; 252 Kbps

MediaInfo

Format : Matroska
Format version : Version 4 / Version 2
File size : 23.9 GiB
Duration : 3h 10mn
Overall bit rate mode : Variable
Overall bit rate : 17.9 Mbps
Encoded date : UTC 2016-05-10 09:18:24
Writing application : mkvmerge v8.3.0 ('Over the Horizon') 64bit
Writing library : libebml v1.3.1 + libmatroska v1.4.2
Attachments : poster.jpg
Video
ID : 1
Format : AVC
Format/Info : Advanced Video Codec
Format profile : High@L4.1
Format settings, CABAC : Yes
Format settings, ReFrames : 3 frames
Codec ID : V_MPEG4/ISO/AVC
Duration : 1h 35mn
Bit rate mode : Variable
Bit rate : 35.0 Mbps
Maximum bit rate : 38.0 Mbps
Width : 1 920 pixels
Height : 1 080 pixels
Display aspect ratio : 16:9
Frame rate mode : Constant
Frame rate : 23.976 (24000/1001) fps
Color space : YUV
Chroma subsampling : 4:2:0
Bit depth : 8 bits
Scan type : Progressive
Bits/(Pixel*Frame) : 0.704
Stream size : 23.3 GiB (98%)
Writing library : x264 core 128 r2216 198a7ea
Encoding settings : cabac=1 / ref=4 / deblock=0:-1:-1 / analyse=0x3:0x133 / me=umh / subme=10 / psy=1 / psy_rd=1.00:0.15 / mixed_ref=1 / me_range=24 / chroma_me=1 / trellis=2 / 8x8dct=1 / cqm=0 / deadzone=21,11 / fast_pskip=1 / chroma_qp_offset=-3 / threads=12 / lookahead_threads=2 / sliced_threads=0 / slices=4 / nr=0 / decimate=1 / interlaced=0 / bluray_compat=1 / constrained_intra=0 / bframes=3 / b_pyramid=1 / b_adapt=2 / b_bias=0 / direct=3 / weightb=1 / open_gop=1 / weightp=1 / keyint=24 / keyint_min=1 / scenecut=40 / intra_refresh=0 / rc_lookahead=24 / rc=2pass / mbtree=0 / bitrate=35000 / ratetol=1.0 / qcomp=0.60 / qpmin=0 / qpmax=69 / qpstep=4 / cplxblur=20.0 / qblur=0.5 / vbv_maxrate=38000 / vbv_bufsize=28500 / nal_hrd=vbr / ip_ratio=1.40 / pb_ratio=1.30 / aq=1:0.80
Language : English
Default : Yes
Forced : No
Color range : Limited
Color primaries : BT.709
Transfer characteristics : BT.709
Matrix coefficients : BT.709
Audio #1
ID : 2
Format : AC-3
Format/Info : Audio Coding 3
Mode extension : CM (complete main)
Format settings, Endianness : Big
Codec ID : A_AC3
Duration : 1h 35mn
Bit rate mode : Constant
Bit rate : 192 Kbps
Channel(s) : 2 channels
Channel positions : Front: L R
Sampling rate : 48.0 KHz
Frame rate : 31.250 fps (1536 spf)
Compression mode : Lossy
Stream size : 131 MiB (1%)
Title : MVO
Language : Russian
Default : Yes
Forced : No
Audio #2
ID : 3
Format : AC-3
Format/Info : Audio Coding 3
Mode extension : CM (complete main)
Format settings, Endianness : Big
Codec ID : A_AC3
Duration : 1h 35mn
Bit rate mode : Constant
Bit rate : 192 Kbps
Channel(s) : 2 channels
Channel positions : Front: L R
Sampling rate : 48.0 KHz
Frame rate : 31.250 fps (1536 spf)
Compression mode : Lossy
Stream size : 131 MiB (1%)
Title : VO Александр Райдер
Language : Russian
Default : No
Forced : No
Audio #3
ID : 4
Format : FLAC
Format/Info : Free Lossless Audio Codec
Codec ID : A_FLAC
Duration : 3h 10mn
Bit rate mode : Variable
Bit rate : 252 Kbps
Channel(s) : 1 channel
Channel positions : Front: C
Sampling rate : 48.0 KHz
Frame rate : 11.719 fps (4096 spf)
Bit depth : 24 bits
Stream size : 345 MiB (1%)
Writing library : libFLAC 1.3.1 (UTC 2014-11-25)
Language : English
Default : No
Forced : No
Text #1
ID : 5
Format : UTF-8
Codec ID : S_TEXT/UTF8
Codec ID/Info : UTF-8 Plain Text
Duration : 1h 32mn
Bit rate : 8 bps
Count of elements : 92
Stream size : 5.70 KiB (0%)
Language : Russian
Default : No
Forced : No
Text #2
ID : 6
Format : UTF-8
Codec ID : S_TEXT/UTF8
Codec ID/Info : UTF-8 Plain Text
Duration : 1h 32mn
Bit rate : 4 bps
Count of elements : 93
Stream size : 3.12 KiB (0%)
Language : English
Default : No
Forced : No

Скриншоты

Показать сообщения:    

Текущее время: 22-Сен 07:19

Часовой пояс: UTC - 1


Вы не можете начинать темы
Вы не можете отвечать на сообщения
Вы не можете редактировать свои сообщения
Вы не можете удалять свои сообщения
Вы не можете голосовать в опросах
Вы не можете прикреплять файлы к сообщениям
Вы не можете скачивать файлы

!ВНИМАНИЕ!
Сайт не предоставляет электронные версии произведений, а занимается лишь коллекционированием и каталогизацией ссылок, присылаемых и публикуемых на форуме нашими читателями. Если вы являетесь правообладателем какого-либо представленного материала и не желаете, чтобы ссылка на него находилась в нашем каталоге, свяжитесь с нами, и мы незамедлительно удалим ее. Файлы для обмена на трекере предоставлены пользователями сайта, и администрация не несет ответственности за их содержание. Просьба не заливать файлы, защищенные авторскими правами, а также файлы нелегального содержания!