Ивановский Торрент трекер
Яндекс.Погода
 

[Цитировать]
HUNTER

Год на орбите (1 серия из 12)
Дата/Год выпуска: 2015
Страна: Россия
Жанр: документальный
Продолжительность: 12 х 26 мин
Перевод: Не требуется
Режиссер: Алексей Чукарев
Описание: Телеканал «Наука 2.0» запускает реалити-шоу, героями которого станут космонавты, а местом съемок — Международная космическая станция (МКС).
Впервые в истории российского телевидения 80% съемок для проекта сделают сами космонавты.
27 марта космонавт Роскосмоса Михаил Корниенко и астронавт НАСА Скот Кейли отправились в первую в истории человечества годовую экспедицию на МКС. Полет станет рекордным по продолжительности.
За жизнью космонавтов можно будет следить в эфире «Науки 2.0».
Авторами спецпроекта «Год на орбите» станут сами космонавты. В формате космического видеоблога они будут вести репортаж с борта МКС с помощью мини-камер GoPro. Формат реалити-шоу впервые
позволит показать жизнь экипажа на станции глазами космонавтов, как она есть: от момента подготовки и облачения в скафандр до возвращения на Землю. Комментарии ведущих экспертов космической
отрасли дополнят кадры, сделанные участниками экспедиции. Часть съемок проекта пройдет в Центре управления полетами и Центре подготовки космонавтов.
Формат телепроекта «Год на орбите» предполагает 12 серий. Каждая из них расскажет об определенном аспекте из жизни экипажа на МКС.
Доп. информация: Автор сценария - Александр Коневич
Сэмпл: http://sendfile.su/1108678
качество: WEBRip
формат: AVI
Видео: XviD, 1500 Кбит/сек, 720 x 368 (1.957), 25.000 fps
Аудио: MP3, 128 Кбит/сек, 2 канала, 48,0 КГц

Внимание! Раздача ведётся путём добавления новых выпусков

Внимание! Раздача ведётся путём добавления новых выпусков; при каждом добавлении создаётся новый торрент. Чтобы начать докачку нового выпуска, пользователям необходимо сделать следующее:
(1) остановить скачивание,
(2) удалить старый торрент у себя из клиента (старые серии удалять не надо),
(3) скачать новый торрент и запустить его у себя в клиенте вместо старого, при этом указать клиенту путь в старую папку куда и должно происходить скачивание новых выпусков.
Ваш клиент при этом должен произвести хеширование (проверку) старой папки (если не производит сам - помогите ему сделать это). В результате он будет докачивать только те выпуски, которых у Вас ещё нет. Старые выпуски при этом не удаляются, а продолжают раздаваться!
Eсли Вы уже удалили старые выпуски, то предотвратить их повторную закачку можно, сняв галочки в соответствующих местах при запуске нового торрента. По возможности, желательно не удалять старые выпуски как можно дольше, чтобы релизёр не только продолжал раздавать старые выпуски, но и смог сконцентрироваться на новых.

Список выпусков/серий

1. «Поехали». Фильм повествует о подготовке участников к полету, сборке корабля и о том, что происходило на территории стартового комплекса за неделю до запуска экспедиции. Завершат серию уникальные съемки старта корабля, сделанные с восьми камер. Так близко старт космического корабля еще не видел ни один телезритель!

MediaInfo

Полное имя : T:\Мои раздачи\Год на орбите (2015)\Год на орбите (2015)\Фильм 1. Поехали.aviФормат : AVIФормат/Информация : Audio Video InterleaveРазмер файла : 306 МбайтПродолжительность : 26 м.Общий поток : 1637 Кбит/секПрограмма кодирования : VirtualDubMod 1.5.10.2 (build 2540/release)Библиотека кодирования : VirtualDubMod build 2540/release
ВидеоИдентификатор : 0Формат : MPEG-4 VisualПрофиль формата : Advanced Simple@L5Параметр BVOP формата : 3Параметр QPel формата : НетПараметр GMC формата : Без точки переходаПараметр матрицы формата : Default (H.263)Идентификатор кодека : XVIDИдентификатор кодека/Подсказка : XviDПродолжительность : 26 м.Битрейт : 1500 Кбит/секШирина : 720 пикселейВысота : 368 пикселейСоотношение сторон : 1,957Частота кадров : 25,000 кадров/секЦветовое пространство : YUVСубдискретизация насыщенности : 4:2:0Битовая глубина : 8 битТип развёртки : ПрогрессивнаяМетод сжатия : С потерямиБит/(Пиксели*Кадры) : 0.226Размер потока : 280 Мбайт (92%)Библиотека кодирования : XviD 1.2.1 (UTC 2008-12-04)
АудиоИдентификатор : 1Формат : MPEG AudioВерсия формата : Version 1Профиль формата : Layer 3Идентификатор кодека : 55Идентификатор кодека/Подсказка : MP3Продолжительность : 26 м.Вид битрейта : ПостоянныйБитрейт : 128 Кбит/секКаналы : 2 каналаЧастота : 48,0 КГцМетод сжатия : С потерямиРазмер потока : 23,9 Мбайт (8%)Выравнивание : Соединение по промежуткамПродолжительность промежутка : 40 мс. (1,00 видеокадр)Время предзагрузки промежутка : 504 мс.Библиотека кодирования : LAME3.98rНастройки программы : -m s -V 4 -q 2 -lowpass 17 -b 128

Скриншоты



Показать сообщения:    

Текущее время: 16-Дек 18:56

Часовой пояс: UTC ± 0


Вы не можете начинать темы
Вы не можете отвечать на сообщения
Вы не можете редактировать свои сообщения
Вы не можете удалять свои сообщения
Вы не можете голосовать в опросах
Вы не можете прикреплять файлы к сообщениям
Вы не можете скачивать файлы

!ВНИМАНИЕ!
Сайт не предоставляет электронные версии произведений, а занимается лишь коллекционированием и каталогизацией ссылок, присылаемых и публикуемых на форуме нашими читателями. Если вы являетесь правообладателем какого-либо представленного материала и не желаете, чтобы ссылка на него находилась в нашем каталоге, свяжитесь с нами, и мы незамедлительно удалим ее. Файлы для обмена на трекере предоставлены пользователями сайта, и администрация не несет ответственности за их содержание. Просьба не заливать файлы, защищенные авторскими правами, а также файлы нелегального содержания!