Важное объявление!
У Нас Все раздачи мультитрекерные, при нуле пиров в релизах, можете смело вставать на закачку!
 
Автор Сообщение

HUNTER

Стаж:
4 года 6 месяцев
Сообщений:
60950

Репутация: 101

[+] [-]
Вне форума [Профиль] [ЛС]

Год без Санты Клауса / The Year Without a Santa Claus
Страна: США
Жанр: мультфильм, мюзикл, фэнтези, семейный
Продолжительность: 00:50:53
Год выпуска: 1974
Перевод: Одноголосый закадровый - Stalk
Русские субтитры: есть

Режиссёр: Джулз Басс / Jules Bass, Артур Ранкин мл. / Arthur Rankin Jr.
Роли озвучивали: Ширли Бут, Микки Руни, Дик Шоун, Джордж С. Ирвинг, Боб МакФедден, Рода Манн, Бредли Болк, Рон Маршалл, Колин Даффи, Кристин Винтер
Описание: Миссис Клаус рассказывает о том времени, когда Санта подхватил простуду и решил взять отпуск на Рождество. Два его эльфа, Джингл Беллс и Джангл Беллс, решили отыскать детей, которые убедят Санту, что рождественский дух все ещё важен для всех вокруг. Им нужно пройти Жаркого Скрягу и Снежного Скрягу, чтобы попасть в Саустаун, где никогда не бывает снега на Рождество. Братья Скряги не соглашаются устроить снегопад в Саустауне. Однако Миссис Клаус знает их маму — Мать Природу.
Качество: BDRip
Формат: AVI
Видео: 656x480 (1.37:1), 23.976 fps, XviD build 73 ~1578 kbps avg, 0.21 bit/pixel
Аудио: 48 kHz, AC3 Dolby Digital, 3/2 (L,C,R,l,r) + LFE ch, ~448 kbps - одноголосый
Аудио: 48 kHz, AC3 Dolby Digital, 3/2 (L,C,R,l,r) + LFE ch, ~448 kbps - оригинал (отдельным файлом)
Субтитры: русские, английские

Подробные технические данные

ОбщееПолное имя : H:\The.Year.Without.a.Santa.Claus.1974.bdrip_[745]_[teko]\The.Year.Without.a.Santa.Claus.1974.bdrip_[745].aviФормат : AVIФормат/Информация : Audio Video InterleaveРазмер файла : 741 МбайтПродолжительность : 50 м.Общий поток : 2036 Кбит/секПрограмма кодирования : VirtualDubMod 1.5.10.3 | www.virtualdub-fr.org || (build 2550/release)Библиотека кодирования : VirtualDubMod build 2550/release
ВидеоИдентификатор : 0Формат : MPEG-4 VisualПрофиль формата : Advanced Simple@L5Параметр BVOP формата : 2Параметр QPel формата : НетПараметр GMC формата : Без точки переходаПараметр матрицы формата : ВыборочнаяИдентификатор кодека : XVIDИдентификатор кодека/Подсказка : XviDПродолжительность : 50 м.Битрейт : 1579 Кбит/секШирина : 656 пикселейВысота : 480 пикселейСоотношение сторон : 4:3Частота кадров : 23,976 кадра/секЦветовое пространство : YUVСубдискретизация насыщенности : 4:2:0Битовая глубина : 8 битТип развёртки : ПрогрессивнаяМетод сжатия : С потерямиБит/(Пиксели*Кадры) : 0.209Размер потока : 575 Мбайт (78%)Библиотека кодирования : XviD 73
АудиоИдентификатор : 1Формат : AC-3Формат/Информация : Audio Coding 3Расширение режима : CM (complete main)Параметр Endianness формата : BigИдентификатор кодека : 2000Продолжительность : 50 м.Вид битрейта : ПостоянныйБитрейт : 448 Кбит/секКаналы : 6 каналовРасположение каналов : Front: L C R, Side: L R, LFEЧастота : 48,0 КГцБитовая глубина : 16 битМетод сжатия : С потерямиРазмер потока : 163 Мбайт (22%)Выравнивание : Разделение по промежуткамПродолжительность промежутка : 42 мс. (1,00 видеокадр)Время предзагрузки промежутка : 500 мс.
Релиз группы:
--

_________________
Показать сообщения:    

Текущее время: Сегодня 07:04

Часовой пояс: GMT



Вы не можете начинать темы
Вы не можете отвечать на сообщения
Вы не можете редактировать свои сообщения
Вы не можете удалять свои сообщения
Вы не можете голосовать в опросах
Вы не можете прикреплять файлы к сообщениям
Вы не можете скачивать файлы
Наши партнеры: интернет магазин Ивановского трикотажа textilla.ru