Ивановский Торрент трекер
Яндекс.Погода
 

[Цитировать]
HUNTER

Годзилла Эра Хейсей (1984-1995) / Godzilla Heisei Series (1984-1995)
-
Годзилла 85: Возвращение Годзиллы /Godzilla 1985: The return of Godzilla
Страна: Япония
Студия: Toho
Жанр: Фантастика
Год выпуска: 1984
Продолжительность: 1:43:40
Перевод: Одноголосый закадровый
Cубтитры: нет
Режиссер: Коджи Хашимото / Koji Hashimoto
В ролях: Ken Tanaka, Yasuko Sawaguchi, Yosuke Natsuki, Keiju Kobayashi, Shin Takuma, Sho Hashimoto
Описание: Три месяца спустя после извержения вулкана около острова Дайкоку пропало японское рыбачье судно « Yahata - maru ». Репортер Горо Маки, плывя на своей лодке, обнаружил пропавшее судно
«Yahata - maru ». Он поднялся на борт судна и там обнаружил многочисленные обескровленные тела. Затем Горо находит одного уцелевшего человека и из его бумажника узнает, что этого человека зовут Кен Окамура. Также в бумажнике Горо находит фотографию, на которой изображен Кен, стоящий рядом с девушкой. И вдруг на Горо нападает гигантская морская блоха. Уцелевший Кен Окамура приходит на помощь Горо и убивает морскую блоху. Далее Окамура рассказывает Горо, что он видел чудовище..
Сэмпл: http://yadi.sk/d/FdtLlW7IAmUHR
Тип релиза: HDTVRip 720p
Контейнер: MKV
Видео: XviD ISO MPEG-4, 1280х688, 3123kbp, 23.976fps
Аудио: 48 kHz, AC3 Dolby Digital, 3/2 (L,C,R,l,r) + LFE ch, ~384 kbps

MediaInfo

General
Unique ID                                : 218029874317928325147592847457244607139 (0xA40706C0508B96C9A3A36B4F369AF2A3)
Complete name                            : H:\GODZ\Godzilla Heisei Series (1984-1995)\1984 Godzilla.720p.Gen02.mkv
Format                                   : Matroska
Format version                           : Version 4 / Version 2
File size                                : 2.59 GiB
Duration                                 : 1h 43mn
Overall bit rate                         : 3 578 Kbps
Encoded date                             : UTC 2013-10-10 19:09:59
Writing application                      : mkvmerge v6.1.0 ('Old Devil') built on Mar  2 2013 14:32:37
Writing library                          : libebml v1.3.0 + libmatroska v1.4.0
Video
ID                                       : 1
Format                                   : MPEG-4 Visual
Format profile                           : Advanced Simple@L5
Format settings, BVOP                    : Yes
Format settings, QPel                    : No
Format settings, GMC                     : No warppoints
Format settings, Matrix                  : Custom
Codec ID                                 : V_MS/VFW/FOURCC / XVID
Codec ID/Hint                            : XviD
Bit rate                                 : 3 123 Kbps
Width                                    : 1 280 pixels
Height                                   : 688 pixels
Display aspect ratio                     : 1.85:1
Frame rate mode                          : Variable
Original frame rate                      : 23.976 fps
Color space                              : YUV
Chroma subsampling                       : 4:2:0
Bit depth                                : 8 bits
Scan type                                : Progressive
Compression mode                         : Lossy
Writing library                          : XviD 1.2.0.dev47 (UTC 2006-11-01)
Default                                  : Yes
Forced                                   : No
Audio
ID                                       : 2
Format                                   : AC-3
Format/Info                              : Audio Coding 3
Mode extension                           : CM (complete main)
Format settings, Endianness              : Big
Codec ID                                 : A_AC3
Duration                                 : 1h 43mn
Bit rate mode                            : Constant
Bit rate                                 : 384 Kbps
Channel(s)                               : 6 channels
Channel positions                        : Front: L C R, Side: L R, LFE
Sampling rate                            : 48.0 KHz
Bit depth                                : 16 bits
Compression mode                         : Lossy
Delay relative to video                  : 10s 500ms
Stream size                              : 285 MiB (11%)
Default                                  : Yes
Forced                                   : No

Скриншоты


-
Годзилла против Биолланте / Godzilla vs. Biollante
Страна: Япония
Студия: Toho
Жанр: Фантастика
Год выпуска: 1989
Продолжительность: 1:44:32
Перевод: Профессиональный (многоголосый закадровый)
Cубтитры: нет
Режиссер: Казуки Омори / Kazuki Omori
В ролях: Кунихико Митамура (Kazuhito Kirishima), Ёсико Танака (Asuka Okouchi), Масанобу Такашима (Major Sho Kuroki), Кодзи Такахаши (Dr. Shiragami), Тору Минегиши (Lieutenant Goro Gondo), Мегуми Одака (Miki Saegusa), Тошиюки Нагашима (Director Seiichi Yamamoto), Рюноскэ Канэда (Azuka's Father), Казума Матсубара (Self Defense Forces Officer), Ясунори Юге (Prime Minister), Ёсико Куга (Prime Minister's Wife), Ясуко Савагучи (Erika Shiragami)
Описание: Гениальный ученый Шурагами создал супер организм Биорант, используя для этого радиоактивные клетки Годзиллы, за которыми охотится международная мафия. А в это время извержение вулкана возродило спящего на дне Токийского залива Годзиллу к жизни. Жители Япония в панике — встреча двух монстров неизбежна и выживет только один из них. И на этот случай силы обороны приготовили своё новое оружие «Супер Икс-2», с помощью которого они готовы уничтожить уцелевшего монстра.
Сэмпл: http://yadi.sk/d/mW4CUXPfAmULC
Тип релиза: HDTVRip 720p
Контейнер: MKV
Видео: XviD ISO MPEG-4, 1280х688, 3131kbp, 23.976fps
Аудио: 48 kHz, AC3 Dolby Digital, 3/2 (L,C,R,l,r) + LFE ch, ~384 kbps

MediaInfo

General
Unique ID                                : 216982343018469078196766445915229128282 (0xA33D47787D086B88A0D470ADC718065A)
Complete name                            : H:\GODZ\Godzilla Heisei Series (1984-1995)\1989 Godzilla vs. Biollante.720p.Gen02.mkv
Format                                   : Matroska
Format version                           : Version 4 / Version 2
File size                                : 2.67 GiB
Duration                                 : 1h 44mn
Overall bit rate                         : 3 651 Kbps
Encoded date                             : UTC 2013-10-10 17:45:31
Writing application                      : mkvmerge v6.1.0 ('Old Devil') built on Mar  2 2013 14:32:37
Writing library                          : libebml v1.3.0 + libmatroska v1.4.0
Video
ID                                       : 1
Format                                   : MPEG-4 Visual
Format profile                           : Advanced Simple@L5
Format settings, BVOP                    : Yes
Format settings, QPel                    : No
Format settings, GMC                     : No warppoints
Format settings, Matrix                  : Custom
Codec ID                                 : V_MS/VFW/FOURCC / XVID
Codec ID/Hint                            : XviD
Bit rate                                 : 3 131 Kbps
Width                                    : 1 280 pixels
Height                                   : 688 pixels
Display aspect ratio                     : 1.85:1
Frame rate mode                          : Variable
Original frame rate                      : 23.976 fps
Color space                              : YUV
Chroma subsampling                       : 4:2:0
Bit depth                                : 8 bits
Scan type                                : Progressive
Compression mode                         : Lossy
Writing library                          : XviD 1.2.0.dev47 (UTC 2006-11-01)
Default                                  : Yes
Forced                                   : No
Audio
ID                                       : 2
Format                                   : AC-3
Format/Info                              : Audio Coding 3
Mode extension                           : CM (complete main)
Format settings, Endianness              : Big
Codec ID                                 : A_AC3
Duration                                 : 1h 44mn
Bit rate mode                            : Constant
Bit rate                                 : 448 Kbps
Channel(s)                               : 6 channels
Channel positions                        : Front: L C R, Side: L R, LFE
Sampling rate                            : 48.0 KHz
Bit depth                                : 16 bits
Compression mode                         : Lossy
Delay relative to video                  : 1s 0ms
Stream size                              : 335 MiB (12%)
Default                                  : Yes
Forced                                   : No

Скриншоты


-
Годзилла против Кинг Гидоры / Godzilla vs. King Ghidorah
Страна: Япония
Студия: Toho
Жанр: Фантастика
Год выпуска: 1991
Продолжительность: 1:42:47
Перевод: Профессиональный (многоголосый закадровый)
Cубтитры: нет
Режиссер: Казуки Омори / Kazuki Omori
В ролях: Косуке Тоёхара, Анна Накагава, Мегуми Одака, Катсухико Сасаки, Акидзи Кобаяси, Токума Нишиока, Ёсио Цутия, Кенджи Сахара, Коити Уэда, Со Ямамура
Описание: В Японию 90-х годов 20 века прибывают люди из далёкого будущего и заявляют, что если Годзилла не будет уничтожен, то вскоре он станет причиной глобальной ядерной катастрофы. Для устранения такой угрозы они предлагают вернуться в прошлое и ликвидировать Годзиллу до его мутации в непобедимого динозавра. Однако вскоре появляется новая проблема — в лице трёхголового дракона Кинга Гидоры.
Сэмпл: http://yadi.sk/d/o9SrvSbKAmUNQ
Тип релиза: HDTVRip 720p
Контейнер: MKV
Видео: XviD ISO MPEG-4, 1280х688, 3121kbp, 23.976fps
Аудио: 48 kHz, AC3 Dolby Digital, 2/0 (L,R) ch, ~192.00 kbps

MediaInfo

General
Unique ID                                : 190564975717054448045456134249750980961 (0x8F5D7AB3F611F14E83CDDF5078DFE961)
Complete name                            : H:\GODZ\Godzilla Heisei Series (1984-1995)\1991 Godzilla vs. King Gidorah.720p.Gen02.mkv
Format                                   : Matroska
Format version                           : Version 4 / Version 2
File size                                : 2.43 GiB
Duration                                 : 1h 43mn
Overall bit rate                         : 3 380 Kbps
Encoded date                             : UTC 2013-10-10 18:19:25
Writing application                      : mkvmerge v6.1.0 ('Old Devil') built on Mar  2 2013 14:32:37
Writing library                          : libebml v1.3.0 + libmatroska v1.4.0
Video
ID                                       : 1
Format                                   : MPEG-4 Visual
Format profile                           : Advanced Simple@L5
Format settings, BVOP                    : Yes
Format settings, QPel                    : No
Format settings, GMC                     : No warppoints
Format settings, Matrix                  : Custom
Codec ID                                 : V_MS/VFW/FOURCC / XVID
Codec ID/Hint                            : XviD
Bit rate                                 : 3 121 Kbps
Width                                    : 1 280 pixels
Height                                   : 688 pixels
Display aspect ratio                     : 1.85:1
Frame rate mode                          : Variable
Original frame rate                      : 23.976 fps
Color space                              : YUV
Chroma subsampling                       : 4:2:0
Bit depth                                : 8 bits
Scan type                                : Progressive
Compression mode                         : Lossy
Writing library                          : XviD 1.2.0.dev47 (UTC 2006-11-01)
Default                                  : Yes
Forced                                   : No
Audio
ID                                       : 2
Format                                   : AC-3
Format/Info                              : Audio Coding 3
Mode extension                           : CM (complete main)
Format settings, Endianness              : Big
Codec ID                                 : A_AC3
Duration                                 : 1h 43mn
Bit rate mode                            : Constant
Bit rate                                 : 192 Kbps
Channel(s)                               : 2 channels
Channel positions                        : Front: L R
Sampling rate                            : 48.0 KHz
Bit depth                                : 16 bits
Compression mode                         : Lossy
Delay relative to video                  : 12ms
Stream size                              : 141 MiB (6%)
Default                                  : Yes
Forced                                   : No

Скриншоты

]

-
Годзилла против Мотры: Битва за Землю / Godzilla vs. Mothra
Страна: Япония
Студия: Toho
Жанр: Фантастика
Год выпуска: 1992
Продолжительность: 1:42:25
Перевод: Профессиональный (многоголосый закадровый)
Cубтитры: нет
Режиссер: Такао Окавара / Takao Okawara
В ролях: Сатоми Кобаяси, Такехиро Мурата, Сабуро Синода, Акидзи Кобаяси, Акира Такарада, Макото Отакэ, Кейко Имамура, Саяка Осава
Описание: Планета Земля решает отомстить людям за неправильное отношение к природе и насылает на них злобного монстра Баттру. Единственное спасение от него — гигантская бабочка Мотра, но она давно спит, и её нужно разбудить. К тому же есть ещё и Годзилла, и никто не знает, чью сторону он примет в этой битве.
Сэмпл: http://yadi.sk/d/-1F0sFQdAmUbs
Тип релиза: HDTVRip 720p
Контейнер: MKV
Видео: XviD ISO MPEG-4, 1280х688, 3131kbp, 23.976fps
Аудио: 48 kHz, AC3 Dolby Digital, 2/0 (L,R) ch, ~192.00 kbps

MediaInfo

General
Unique ID                                : 181921275604235283570055100955184507653 (0x88DCC3626F1382FF9785E5899716AB05)
Complete name                            : H:\GODZ\Godzilla Heisei Series (1984-1995)\1992 Godzilla vs. Mothra. 720p.Gen02.mkv
Format                                   : Matroska
Format version                           : Version 4 / Version 2
File size                                : 2.43 GiB
Duration                                 : 1h 42mn
Overall bit rate                         : 3 391 Kbps
Encoded date                             : UTC 2013-10-10 18:30:23
Writing application                      : mkvmerge v6.1.0 ('Old Devil') built on Mar  2 2013 14:32:37
Writing library                          : libebml v1.3.0 + libmatroska v1.4.0
Video
ID                                       : 1
Format                                   : MPEG-4 Visual
Format profile                           : Advanced Simple@L5
Format settings, BVOP                    : Yes
Format settings, QPel                    : No
Format settings, GMC                     : No warppoints
Format settings, Matrix                  : Custom
Codec ID                                 : V_MS/VFW/FOURCC / XVID
Codec ID/Hint                            : XviD
Bit rate                                 : 3 131 Kbps
Width                                    : 1 280 pixels
Height                                   : 688 pixels
Display aspect ratio                     : 1.85:1
Frame rate mode                          : Variable
Original frame rate                      : 23.976 fps
Color space                              : YUV
Chroma subsampling                       : 4:2:0
Bit depth                                : 8 bits
Scan type                                : Progressive
Compression mode                         : Lossy
Writing library                          : XviD 1.2.0.dev47 (UTC 2006-11-01)
Default                                  : Yes
Forced                                   : No
Audio
ID                                       : 2
Format                                   : AC-3
Format/Info                              : Audio Coding 3
Mode extension                           : CM (complete main)
Format settings, Endianness              : Big
Codec ID                                 : A_AC3
Duration                                 : 1h 42mn
Bit rate mode                            : Constant
Bit rate                                 : 192 Kbps
Channel(s)                               : 2 channels
Channel positions                        : Front: L R
Sampling rate                            : 48.0 KHz
Bit depth                                : 16 bits
Compression mode                         : Lossy
Stream size                              : 141 MiB (6%)
Default                                  : Yes
Forced                                   : No

Скриншоты


-
Годзилла против Мекагодзиллы 2 / Godzilla vs. Mechagodzilla 2
Страна: Япония
Студия: Toho
Жанр: Фантастика
Год выпуска: 1993
Продолжительность: 1:47:41
Перевод: Профессиональный (многоголосый закадровый)
Cубтитры: нет
Режиссер: Такао Окавара / Takao Okawara
В ролях: Масахиро Такашима, Риоко Сано, Мегуми Одака, Юсуке Кавазу, Кенджи Сахара, Акира Накао, Коити Уэда, Дайдзиро Харада, Тадао Такашима
Описание: Пытаясь найти оружие, способное уничтожить Годзиллу, ученые создают Мекагодзиллу - робота, воплощение всех самых последних технологий.
В это же время на одном из островов находят странное яйцо, которое охраняет Родан, доисторический птеранодон.
Используя яйцо как приманку для Годзиллы, японцы надеются заманить его на пустынный остров, где Мекагодзилла смог бы его уничтожить.
Сэмпл: http://yadi.sk/d/btCfIQpiAmUSC
Тип релиза: HDTVRip 720p
Контейнер: MKV
Видео: XviD ISO MPEG-4, 1280х688, 3130kbp, 23.976fps
Аудио: 48 kHz, AC3 Dolby Digital, 2/0 (L,R) ch, ~192.00 kbps

MediaInfo

General
Unique ID                                : 250764400871228837806234758950329485781 (0xBCA777844BB40E8AA35201F0243389D5)
Complete name                            : H:\GODZ\Godzilla Heisei Series (1984-1995)\1993 Godzilla vs. MehaGodzilla.720p.Gen02.mkv
Format                                   : Matroska
Format version                           : Version 4 / Version 2
File size                                : 2.55 GiB
Duration                                 : 1h 47mn
Overall bit rate                         : 3 389 Kbps
Encoded date                             : UTC 2013-10-10 18:48:43
Writing application                      : mkvmerge v6.1.0 ('Old Devil') built on Mar  2 2013 14:32:37
Writing library                          : libebml v1.3.0 + libmatroska v1.4.0
Video
ID                                       : 1
Format                                   : MPEG-4 Visual
Format profile                           : Advanced Simple@L5
Format settings, BVOP                    : Yes
Format settings, QPel                    : No
Format settings, GMC                     : No warppoints
Format settings, Matrix                  : Custom
Codec ID                                 : V_MS/VFW/FOURCC / XVID
Codec ID/Hint                            : XviD
Bit rate                                 : 3 130 Kbps
Width                                    : 1 280 pixels
Height                                   : 688 pixels
Display aspect ratio                     : 1.85:1
Frame rate mode                          : Variable
Original frame rate                      : 23.976 fps
Color space                              : YUV
Chroma subsampling                       : 4:2:0
Bit depth                                : 8 bits
Scan type                                : Progressive
Compression mode                         : Lossy
Writing library                          : XviD 1.2.1 (UTC 2008-12-04)
Default                                  : Yes
Forced                                   : No
Audio
ID                                       : 2
Format                                   : AC-3
Format/Info                              : Audio Coding 3
Mode extension                           : CM (complete main)
Format settings, Endianness              : Big
Codec ID                                 : A_AC3
Duration                                 : 1h 47mn
Bit rate mode                            : Constant
Bit rate                                 : 192 Kbps
Channel(s)                               : 2 channels
Channel positions                        : Front: L R
Sampling rate                            : 48.0 KHz
Bit depth                                : 16 bits
Compression mode                         : Lossy
Delay relative to video                  : 24ms
Stream size                              : 148 MiB (6%)
Default                                  : Yes
Forced                                   : No

Скриншоты


-
Годзилла и пришелец из космоса / Godzilla vs. SpaceGodzilla
Страна: Япония
Студия: Toho
Жанр: Фантастика
Год выпуска: 1994
Продолжительность: 1:47:49
Перевод: Студийный (одноголосый закадровый) Александр Кашкин для корпорации "Арена"
Cубтитры: нет
Режиссер: Кеншо Ямашито /Kensho Yamashita/
В ролях: Юн Хашизуми /Jun Hashizume/ Мегуми Одака /Megumi Odaka/ Тавакo Йошикава /Towako Yoshikawa/ Акиро Емото /Akira Emoto/ Кендзи Сахара /Kenji Sahara/
Описание: На этот раз люди разработали два проекта по противодействию Годзилле: первый - под названием МОГЕРА - Мобильный Аэрокосмический Робот; второй - проект "Т" - усиливающий телепатический передатчик, через который возможно контролировать Годзиллу. Однако, в эти планы вмешивается Космо-Годзилла - космический монстр, порожденный клетками Годзиллы и кристаллической материей неизвестного науке происхождения. Такое развитие событий вынуждает людей в спешке направить в космос МОГЕРУ на перехват космического пришельца, а против Годзиллы использовать проект "Т".
Сэмпл: http://yadi.sk/d/GU4_fXxAAmUYk
Тип релиза: HDTVRip 720p
Контейнер: MKV
Видео: XviD ISO MPEG-4, 1280х688, 3123kbps, 23.976fps
Аудио: AC3, 48 кГц, 192 Кбит/с, Dolby Digital 2.0

MediaInfo

General
Unique ID                                : 179190419480225291565782511243650248669 (0x86CED1C84A26BD57B6858B514719AFDD)
Complete name                            : H:\GODZ\Godzilla Heisei Series (1984-1995)\1994 Godzilla vs. SpaceGodzilla.720p.Gen02.mkv
Format                                   : Matroska
Format version                           : Version 4 / Version 2
File size                                : 2.55 GiB
Duration                                 : 1h 47mn
Overall bit rate                         : 3 383 Kbps
Encoded date                             : UTC 2013-10-10 18:05:04
Writing application                      : mkvmerge v6.1.0 ('Old Devil') built on Mar  2 2013 14:32:37
Writing library                          : libebml v1.3.0 + libmatroska v1.4.0
Video
ID                                       : 1
Format                                   : MPEG-4 Visual
Format profile                           : Advanced Simple@L5
Format settings, BVOP                    : Yes
Format settings, QPel                    : No
Format settings, GMC                     : No warppoints
Format settings, Matrix                  : Custom
Codec ID                                 : V_MS/VFW/FOURCC / XVID
Codec ID/Hint                            : XviD
Bit rate                                 : 3 123 Kbps
Width                                    : 1 280 pixels
Height                                   : 688 pixels
Display aspect ratio                     : 1.85:1
Frame rate mode                          : Variable
Original frame rate                      : 23.976 fps
Color space                              : YUV
Chroma subsampling                       : 4:2:0
Bit depth                                : 8 bits
Scan type                                : Progressive
Compression mode                         : Lossy
Writing library                          : XviD 1.2.0.dev47 (UTC 2006-11-01)
Default                                  : Yes
Forced                                   : No
Audio
ID                                       : 2
Format                                   : AC-3
Format/Info                              : Audio Coding 3
Mode extension                           : CM (complete main)
Format settings, Endianness              : Big
Codec ID                                 : A_AC3
Duration                                 : 1h 47mn
Bit rate mode                            : Constant
Bit rate                                 : 192 Kbps
Channel(s)                               : 2 channels
Channel positions                        : Front: L R
Sampling rate                            : 48.0 KHz
Bit depth                                : 16 bits
Compression mode                         : Lossy
Stream size                              : 148 MiB (6%)
Default                                  : Yes
Forced                                   : No

Скриншоты


-
Годзилла и Разрушитель / Godzilla vs. Destroyer
Страна: Япония
Студия: Toho
Жанр: Фантастика
Год выпуска: 1995
Продолжительность: 1:42:51
Перевод: Одноголосый закадровый
Cубтитры: нет
Режиссер: Такао Окавара /Takao Okawara/
В ролях: Такуро Тацуми /Takuro Tatsumi/ Йоко Ишино /Yko Ishino/ Ясуфуми Хаяши /Yasufumi Hayashi/ Мегуми Одака /Megumi Odaka/ Саяка Осава /Sayaka Osawa/
Описание: Расщепление урана в земных недрах вызвало неуправляемую цепную реакцию в теле Годзиллы, превращая его в ядерную бомбу замедленного действия, готовую взорваться в любую минуту. В это время в одной из лабораторий Токио ученые создают препарат, неверное применение которого приводит к созданию супермонстра "Разрушителя", уничтожающего все на своем пути. Единственный шанс человечества на выживание - что в чудовищной схватке титанов не будет победителя. Захватывающие спецэффекты японских кинематографистов оставляют незабываемое впечатление.…
Сэмпл: http://yadi.sk/d/LQ4IoCfXAmUaG
Тип релиза: HDTVRip 720p
Контейнер: MKV
Видео: XviD ISO MPEG-4, 1280х688, 3123kbps, 23.976fps
Аудио 1: MP3, 48 кГц, 128 Кбит/с, Stereo

MediaInfo

General
Unique ID                                : 185754758855981025880444560899285675625 (0x8BBF10B3861A53C5A581874CC5536E69)
Complete name                            : H:\GODZ\Godzilla Heisei Series (1984-1995)\1995 Godzilla vs. Destroyah.720p.Gen02.mkv
Format                                   : Matroska
Format version                           : Version 4 / Version 2
File size                                : 2.38 GiB
Duration                                 : 1h 42mn
Overall bit rate                         : 3 317 Kbps
Encoded date                             : UTC 2013-10-11 10:45:06
Writing application                      : mkvmerge v6.1.0 ('Old Devil') built on Mar  2 2013 14:32:37
Writing library                          : libebml v1.3.0 + libmatroska v1.4.0
Video
ID                                       : 1
Format                                   : MPEG-4 Visual
Format profile                           : Advanced Simple@L5
Format settings, BVOP                    : Yes
Format settings, QPel                    : No
Format settings, GMC                     : No warppoints
Format settings, Matrix                  : Custom
Codec ID                                 : V_MS/VFW/FOURCC / XVID
Codec ID/Hint                            : XviD
Bit rate                                 : 3 123 Kbps
Width                                    : 1 280 pixels
Height                                   : 688 pixels
Display aspect ratio                     : 1.85:1
Frame rate mode                          : Variable
Original frame rate                      : 23.976 fps
Color space                              : YUV
Chroma subsampling                       : 4:2:0
Bit depth                                : 8 bits
Scan type                                : Progressive
Compression mode                         : Lossy
Writing library                          : XviD 1.2.0.dev47 (UTC 2006-11-01)
Default                                  : Yes
Forced                                   : No
Audio
ID                                       : 2
Format                                   : MPEG Audio
Format version                           : Version 1
Format profile                           : Layer 3
Mode                                     : Joint stereo
Mode extension                           : MS Stereo
Codec ID                                 : A_MPEG/L3
Codec ID/Hint                            : MP3
Duration                                 : 1h 42mn
Bit rate mode                            : Constant
Bit rate                                 : 128 Kbps
Channel(s)                               : 2 channels
Sampling rate                            : 48.0 KHz
Compression mode                         : Lossy
Stream size                              : 94.2 MiB (4%)
Default                                  : Yes
Forced                                   : No

Скриншоты


-
Дополнительно: в сети не существует данных фильмов более высокого качества(кроме фильма 1989 года), если в Японии будут крутить 2й раз по hdtv то возможно появятся, но есть только такие рипы, с таким кодеком и такого разрешения, рипы сделаны Gen02 в 2009 году еще, и исходных видео он больше не имеет , поэтому существует проблема, в том что параметры видео не походят ни к одному разделу, а пережимать всетки тем более рип(как исходник) лучше доверить тем кто умеет, чтобы не потерять качество, просьба к модераторам, если возможно присвоить сомнительно, чтобы впоследствии раздача была поглощена той которая имеет такое же качество картинки, и удовлетворяет полным требованиям. Ведь даже с сомнительным разрешением и битрейтом качество видео картинки заметно лучше чем в других раздачах данных фильмов, спасибо.
Показать сообщения:    

Текущее время: 22-Сен 19:46

Часовой пояс: UTC - 1


Вы не можете начинать темы
Вы не можете отвечать на сообщения
Вы не можете редактировать свои сообщения
Вы не можете удалять свои сообщения
Вы не можете голосовать в опросах
Вы не можете прикреплять файлы к сообщениям
Вы не можете скачивать файлы

!ВНИМАНИЕ!
Сайт не предоставляет электронные версии произведений, а занимается лишь коллекционированием и каталогизацией ссылок, присылаемых и публикуемых на форуме нашими читателями. Если вы являетесь правообладателем какого-либо представленного материала и не желаете, чтобы ссылка на него находилась в нашем каталоге, свяжитесь с нами, и мы незамедлительно удалим ее. Файлы для обмена на трекере предоставлены пользователями сайта, и администрация не несет ответственности за их содержание. Просьба не заливать файлы, защищенные авторскими правами, а также файлы нелегального содержания!