Ивановский Торрент трекер
Яндекс.Погода
 

[Цитировать]
HUNTER

1 часть этого фильма здесь-Гнeв титaнoв / Wrаth оf thе Titаns
Страна: США
Студия: Legendary Pictures, The Zanuck Company, Thunder Road, Warner Bros. Pictures
Жанр: фэнтези, боевик, приключения
Год выпуска: 2012
Продолжительность: 01:35:27
Перевод: Профессиональный (дублированный)
Cубтитры: русские
Оригинальная аудиодорожка: английский
Режиссер: Джонатан Либесман / Jonathan Liebesman
В ролях: Сэм Уортингтон, Лиам Нисон, Рэйф Файнс, Эдгар Рамирез, Тоби Кеббелл, Розамунд Пайк, Билл Найи, Дэнни Хьюстон, Джон Белл, Лили Джеймс
Описание: Прошло десять лет после героического поражения Персеем морского чудовища Кракена, теперь он живет спокойной жизнью деревенского рыбака и воспитывает своего 10-летнего сына.
Тем временем, бушует борьба за превосходство между Богами и Титанами. Опасно ослабленные нехваткой человеческой любви и преданности, Боги теряют контроль над заключенными в тюрьму Титанами и их свирепым лидером, Кроносом, отцом правящих братьев Зевса, Аида и Посейдона. Давным-давно триумвират сверг своего сильного отца, отправив его гнить в мрачную пропасть Тартар, темницу, находящуюся в глубоких пределах подземного мира.
Персей не может остаться в стороне, когда Аид вместе с сыном Зевса, Аресом, заключают сделку с Кроносом, чтобы вместе уничтожить Зевса. Сила Титанов становится ещё больше, в то время как Зевс теряет свою мощь и власть, а по Земле раскидывается ад подземного мира.
Вместе с Андромедой, полубогом Агенором, сыном Посейдона и низвергнутым богом Гефестом,- Персей отправляется в опасное и отважное путешествие в подземный мир, чтобы спасти Зевса, свергнуть Титанов и сохранить людской род.-Доп. информация:
Источник видео, аудио, субтитров-BDRemux с другого трекера
Источник меню, celltimes Спасибо vlaa8
Видео перекодировано с помощью ProCoder 3 в 2 прохода.
Аудио получены с помощью программ BeLight, Tranzcode и Sonic foundry Soft.
NTSC->PAL с помощью Adobe Audition-Меню: Есть, статичное, озвученное

Тип релиза: DVD5 (Custom)
Контейнер: DVD-Video
Видео: PAL 16:9 (720х576) VBR
Аудио: Russian (Dolby AC3, 6 ch) 448 Кбит/сек
Аудио 2: English (Dolby AC3, 6 ch) 448 Кбит/сек

MediaInfo исходника

General
Unique ID : 222036443225964685021061614304876807709 (0xA70AA9D9864D0537A108B3129C97C61D)
Complete name : D:\BD-DVD5\Wrath of the Titans.mkv
Format : Matroska
Format version : Version 2
File size : 17.8 GiB
Duration : 1h 39mn
Overall bit rate : 25.6 Mbps
Encoded date : UTC 2012-07-09 07:04:18
Writing application : mkvmerge v5.6.0 ('Kenya Kane') built on May 27 2012 16:44:04
Writing library : libebml v1.2.3 + libmatroska v1.3.0
Video
ID : 1
Format : AVC
Format/Info : Advanced Video Codec
Format profile : High@L4.1
Format settings, CABAC : Yes
Format settings, ReFrames : 2 frames
Format settings, GOP : M=1, N=10
Codec ID : V_MPEG4/ISO/AVC
Duration : 1h 39mn
Bit rate mode : Variable
Bit rate : 21.9 Mbps
Width : 1 920 pixels
Height : 1 080 pixels
Display aspect ratio : 16:9
Frame rate : 23.976 fps
Color space : YUV
Chroma subsampling : 4:2:0
Bit depth : 8 bits
Scan type : Progressive
Bits/(Pixel*Frame) : 0.441
Stream size : 15.3 GiB (86%)
Language : English
Audio #1
ID : 2
Format : AC-3
Format/Info : Audio Coding 3
Mode extension : CM (complete main)
Codec ID : A_AC3
Duration : 1h 39mn
Bit rate mode : Constant
Bit rate : 448 Kbps
Channel(s) : 6 channels
Channel positions : Front: L C R, Side: L R, LFE
Sampling rate : 48.0 KHz
Bit depth : 16 bits
Compression mode : Lossy
Stream size : 319 MiB (2%)
Language : Russian
Audio #2
ID : 3
Format : AC-3
Format/Info : Audio Coding 3
Mode extension : CM (complete main)
Codec ID : A_AC3
Duration : 1h 39mn
Bit rate mode : Constant
Bit rate : 448 Kbps
Channel(s) : 6 channels
Channel positions : Front: L C R, Side: L R, LFE
Sampling rate : 48.0 KHz
Bit depth : 16 bits
Compression mode : Lossy
Stream size : 319 MiB (2%)
Language : Ukrainian
Audio #3
ID : 4
Format : DTS
Format/Info : Digital Theater Systems
Format profile : MA / Core
Codec ID : A_DTS
Duration : 1h 39mn
Bit rate mode : Variable
Bit rate : 2 245 Kbps / 1 510 Kbps
Channel(s) : 6 channels
Channel positions : Front: L C R, Side: L R, LFE
Sampling rate : 48.0 KHz
Bit depth : 24 bits
Compression mode : Lossless / Lossy
Language : English
Text #1
ID : 5
Format : UTF-8
Codec ID : S_TEXT/UTF8
Codec ID/Info : UTF-8 Plain Text
Title : BD CEE
Language : Russian
Text #2
ID : 6
Format : UTF-8
Codec ID : S_TEXT/UTF8
Codec ID/Info : UTF-8 Plain Text
Title : Voronine
Language : Russian
Text #3
ID : 7
Format : UTF-8
Codec ID : S_TEXT/UTF8
Codec ID/Info : UTF-8 Plain Text
Language : English
Text #4
ID : 8
Format : UTF-8
Codec ID : S_TEXT/UTF8
Codec ID/Info : UTF-8 Plain Text
Title : SDH
Language : English
Menu
00:00:00.000 : :Chapter 01
00:09:24.855 : :Chapter 02
00:20:07.122 : :Chapter 03
00:30:53.059 : :Chapter 04
00:40:02.316 : :Chapter 05
00:48:46.882 : :Chapter 06
01:00:21.742 : :Chapter 07
01:10:16.420 : :Chapter 08
01:19:18.712 : :Chapter 09
01:30:33.803 : :Chapter 10
01:39:31.256 : :Chapter 11

Скриншоты программ

Аудио

DVDInfo

Title: Wrath of the Titans
Size: 4.35 Gb ( 4 563 858,00 KBytes ) - DVD-5
Enabled regions: 1, 2, 3, 4, 5, 6, 7, 8
VTS_01 :
Play Length: 01:35:27+00:00:00+00:00:02+{00:00:00}+{00:00:00}+{00:00:00}
Video: PAL 16:9 (720x576) VBR, Auto Letterboxed
Audio:
Russian (Dolby AC3, 6 ch)
English (Dolby AC3, 6 ch)
Subtitles:
Russian
English

Скриншоты меню

Скриншоты


Скрипт

LoadPlugin("D:\programs\ffms2-r644\ffms2.dll") # подключение декодера
FFVideoSource("D:\BD-DVD5\Wrath of the Titans.mkv") #открытие видео
LoadPlugin("D:\programs\AutoYUY2\AutoYUY2.dll") #подключение плагина
AutoYUY2() # конверсия цветового пространства
LoadPlugin("D:\programs\ColorMatrixv25\ColorMatrix\ColorMatrix.dll")
ColorMatrix(mode="Rec.709->Rec.601", inputFR=false, clamp=0) # 16-235
#ColorMatrix(mode="Rec.709->Rec.601", inputFR=true, clamp=0) # 0-255
Lanczos4Resize(720, 576)
AssumeFPS(25)

Программы используемые для создания релиза

Видео
ProCoder 3 - конвертация видео
AviSynth - обработка видео
FFMpegSource2 - индексирование
Звук
Belight(+Besweet)- разборка на waw
Sonic foundry Soft-получение ac3 448
Adobe Audition- NTSC->PAL
Програмы для разборки/сборки
PgcDemux - демукс исходного DVD
MuxMan - сборка видео
ts_muxer-извлечение дорог
Работа с меню и реавторинг
Adobe Photoshop - редактирование меню
DVDReMakePro - реавторинг диска

Для тех,кто будет качать

Скорость отдачи маленькая, так что просьба набраться терпения и подождать.

Обложки


Показать сообщения:    

Текущее время: 21-Окт 22:21

Часовой пояс: UTC - 1


Вы не можете начинать темы
Вы не можете отвечать на сообщения
Вы не можете редактировать свои сообщения
Вы не можете удалять свои сообщения
Вы не можете голосовать в опросах
Вы не можете прикреплять файлы к сообщениям
Вы не можете скачивать файлы

!ВНИМАНИЕ!
Сайт не предоставляет электронные версии произведений, а занимается лишь коллекционированием и каталогизацией ссылок, присылаемых и публикуемых на форуме нашими читателями. Если вы являетесь правообладателем какого-либо представленного материала и не желаете, чтобы ссылка на него находилась в нашем каталоге, свяжитесь с нами, и мы незамедлительно удалим ее. Файлы для обмена на трекере предоставлены пользователями сайта, и администрация не несет ответственности за их содержание. Просьба не заливать файлы, защищенные авторскими правами, а также файлы нелегального содержания!