Важное объявление!
У Нас Все раздачи мультитрекерные, при нуле пиров в релизах, можете смело вставать на закачку!
 
Автор Сообщение

HUNTER

Стаж:
4 года 8 месяцев
Сообщений:
61987

Репутация: 101

[+] [-]
Вне форума [Профиль] [ЛС]

-Гладиаторы Рима / Gladiatori di Roma -
Год выпуска: 2012
Страна: Италия
Жанр: Мультфильм, комедия, приключения
Продолжительность: 01:34:05
Перевод: Дублированный
Субтитры: Отсутствуют- Студия: Rainbow S.r.l, Rainbow CGI
Режисёр: Иджинио Страффи
В ролях: Лука Арджентеро, Лаура Кьятти, Джулианна Хаф, Белен Родригес- Описание: Страшное извержение вулкана разрушает город Помпеи, и маленький Тим остается сиротой. Его спаситель, генерал Кирон, отправляет Тима в школу гладиаторов, но юный лентяй упорно не желает становиться бойцом. Повзрослев, Тим влюбляется в красавицу Лючиллу. Но чтобы покорить её сердце, нужно стать настоящим героем. Прекрасная Диана, богиня охоты и мастер по гладиаторским боям, берется за тренировки Тима перед первым боем. Но получится ли у Тима победить самого себя и стать настоящим мужчиной?- Качество видео: BDrip 1080p
Формат: MKV
Формат 3D: Half OverUnder / Вертикальная анаморфная стереопара
Порядок ракурсов: Левый ракурс первый
Видео кодек: x264
Аудио кодек: АС3, DTS
Видео: x.264, NTSC 23.976, 1920х1080, 13400 кбит/с, 0.269 bit/pixel
Аудио #1: Русский: AC3, 6ch (L, C, R, Ls, Rs +LFE), 448 кбит/с (студия "МОСФИЛЬМ-мастер")
Аудио #2: Английский: DTS, 6ch (L, C, R, Ls, Rs +LFE), 1536 кбит/с - Релиз группы:
-

Рейтинги


-

MediaInfo


Код: copyText_writeLink('this.parentNode.parentNode.nextSibling.nextSibling'); Общее
Уникальный идентификатор : 230358984442041580611679874576491412838 (0xAD4D86CFE24553A4AD9619617EC2FD66)
Полное имя : D:\3D_Rip_Ramazan\Gladiatori.di.Roma.2012.1080p.BDRip.3D.HalfOU.x264.DTS.ac3.ita.rus-HDv0T.mkv
Формат : Matroska
Версия формата : Version 2
Размер файла : 10,1 Гбайт
Продолжительность : 1 ч. 34 м.
Общий поток : 15,4 Мбит/сек
Название фильма : Gladiatori.di.Roma.2012 [HDv0T / Ramazan]
Дата кодирования : UTC 2013-02-25 22:31:56
Программа кодирования : mkvmerge v5.8.0 ('No Sleep / Pillow') built on Sep 2 2012 15:37:04
Библиотека кодирования : libebml v1.2.3 + libmatroska v1.3.0
Видео
Идентификатор : 1
Формат : AVC
Формат/Информация : Advanced Video Codec
Профиль формата : [url=mailto:High@L4.1]High@L4.1[/url]
Параметр CABAC формата : Да
Параметр ReFrames формата : 4 кадра
Идентификатор кодека : V_MPEG4/ISO/AVC
Продолжительность : 1 ч. 34 м.
Битрейт : 13,4 Мбит/сек
Ширина : 1920 пикселей
Высота : 1080 пикселей
Соотношение сторон : 16:9
Режим частоты кадров : Постоянный
Частота кадров : 23,976 кадра/сек
Цветовое пространство : YUV
Субдискретизация насыщенности : 4:2:0
Битовая глубина : 8 бит
Тип развёртки : Прогрессивная
Бит/(Пиксели*Кадры) : 0.269
Размер потока : 8,61 Гбайт (85%)
Заголовок : Gladiatori.di.Roma.2012.1080p.BDRip.3D.HalfOU.x264.DTS.ac3.ita.rus-HDv0T
Библиотека кодирования : x264 core 128 r2216kMod 198a7ea
Настройки программы : cabac=1 / ref=4 / deblock=1:-3:-3 / analyse=0x3:0x113 / me=umh / subme=9 / psy=1 / fade_compensate=0.00 / psy_rd=0.90:0.00 / mixed_ref=1 / me_range=16 / chroma_me=1 / trellis=2 / 8x8dct=1 / cqm=0 / deadzone=21,11 / fast_pskip=0 / chroma_qp_offset=-2 / threads=12 / lookahead_threads=2 / sliced_threads=0 / nr=0 / decimate=0 / interlaced=0 / bluray_compat=0 / constrained_intra=0 / bframes=6 / b_pyramid=2 / b_adapt=2 / b_bias=0 / direct=3 / weightb=1 / open_gop=0 / weightp=2 / keyint=250 / keyint_min=23 / scenecut=40 / intra_refresh=0 / rc=2pass / mbtree=0 / bitrate=13394 / ratetol=1.0 / qcomp=0.60 / qpmin=0 / qpmax=69 / qpstep=4 / cplxblur=20.0 / qblur=0.5 / frame-packing=4 / ip_ratio=1.40 / pb_ratio=1.30 / aq=1:0.90
Язык : English
Default : Да
Forced : Нет
Аудио #1
Идентификатор : 2
Формат : AC-3
Формат/Информация : Audio Coding 3
Расширение режима : CM (complete main)
Параметр Endianness формата : Big
Идентификатор кодека : A_AC3
Продолжительность : 1 ч. 34 м.
Вид битрейта : Постоянный
Битрейт : 448 Кбит/сек
Каналы : 6 каналов
Расположение каналов : Front: L C R, Side: L R, LFE
Частота : 48,0 КГц
Битовая глубина : 16 бит
Метод сжатия : С потерями
Размер потока : 301 Мбайт (3%)
Заголовок : AC3 5.1 @ 448 kbps |студия "МОСФИЛЬМ-мастер"|
Язык : Russian
Default : Да
Forced : Нет
Аудио #2
Идентификатор : 3
Формат : DTS
Формат/Информация : Digital Theater Systems
Режим : 16
Параметр Endianness формата : Big
Идентификатор кодека : A_DTS
Продолжительность : 1 ч. 34 м.
Вид битрейта : Постоянный
Битрейт : 1509 Кбит/сек
Каналы : 6 каналов
Расположение каналов : Front: L C R, Side: L R, LFE
Частота : 48,0 КГц
Битовая глубина : 24 бит
Метод сжатия : С потерями
Размер потока : 1015 Мбайт (10%)
Заголовок : DTS 5.1 @ 1536 kbps
Язык : Italian
Default : Нет
Forced : Нет
Меню
00:00:00.000 : en:01
00:05:49.808 : en:02
00:13:47.035 : en:03
00:19:00.139 : en:04
00:25:01.417 : en:05
00:31:26.426 : en:06
00:35:59.032 : en:07
00:42:21.205 : en:08
00:47:07.867 : en:09
00:52:27.227 : en:10
00:56:24.089 : en:11
01:03:29.806 : en:12
01:08:41.284 : en:13
01:13:22.648 : en:14
01:17:42.283 : en:15
01:23:48.357 : en:16

Скриншоты



_________________
Показать сообщения:    

Текущее время: Сегодня 10:55

Часовой пояс: GMT



Вы не можете начинать темы
Вы не можете отвечать на сообщения
Вы не можете редактировать свои сообщения
Вы не можете удалять свои сообщения
Вы не можете голосовать в опросах
Вы не можете прикреплять файлы к сообщениям
Вы не можете скачивать файлы
Наши партнеры: интернет магазин Ивановского трикотажа textilla.ru