Важное объявление!
У Нас Все раздачи мультитрекерные, при нуле пиров в релизах, можете смело вставать на закачку!
 
Автор Сообщение

HUNTER

Стаж:
4 года 7 месяцев
Сообщений:
61460

Репутация: 101

[+] [-]
Вне форума [Профиль] [ЛС]


Гладиаторы Рима
Gladiatori di Roma
-

  • Год производства: 2012

  • Страна: Италия

  • Жанр: Мультфильм, комедия, приключения

  • Продолжительность: 01:34:05

  • Перевод: Профессиональный (полное дублирование)

  • Субтитры: Отсутствуют-
  • Режиссер: Иджинио Страффи-
  • Описание: Страшное извержение вулкана разрушает город Помпеи, и маленький Тим остается сиротой. Его спаситель, генерал Кирон, отправляет Тима в школу гладиаторов, но юный лентяй упорно не желает становиться бойцом. Повзрослев, Тим влюбляется в красавицу Лючиллу. Но чтобы покорить её сердце, нужно стать настоящим героем. Прекрасная Диана, богиня охоты и мастер по гладиаторским боям, берется за тренировки Тима перед первым боем. Но получится ли у Тима победить самого себя и стать настоящим мужчиной?
    -
  • Качество видео: BDRip 1080p

  • Формат видео: mkv

  • Видео кодек: H264

  • Аудио кодек: AC3

  • Видео: 1920x816 (2.35:1), 23.976 fps, 6 500 Kbps, 0.163 bit/pixel

  • Аудио: 48 kHz, AC3 6 ch ~384 kbps avg-
  • Автор рипа: falco
-

Доп. информация

Скриншоты

MediaInfo

Код: copyText_writeLink('this.parentNode.parentNode.nextSibling.nextSibling');
General
Unique ID : 216878932375025760917637020198735028282 (0xA3295CEEAAEC7960AFC5F27BF98DA03A)
Complete name : D:\Торенты\Gladiatory.di.Roma.2012.BDRip.1080p.falco.mkv
Format : Matroska
Format version : Version 4 / Version 2
File size : 4.28 GiB
Duration : 1h 34mn
Overall bit rate : 6 500 Kbps
Encoded date : UTC 2013-07-29 08:20:43
Writing application : mkvmerge v6.3.0 ('You can't stop me!') built on Jun 28 2013 20:09:41
Writing library : libebml v1.3.0 + libmatroska v1.4.0
Video
ID : 1
Format : AVC
Format/Info : Advanced Video Codec
Format profile : [url=mailto:High@L4.1]High@L4.1[/url]
Format settings, CABAC : Yes
Format settings, ReFrames : 4 frames
Codec ID : V_MPEG4/ISO/AVC
Duration : 1h 34mn
Bit rate : 6 127 Kbps
Width : 1 920 pixels
Height : 816 pixels
Display aspect ratio : 2.35:1
Frame rate : 23.976 fps
Color space : YUV
Chroma subsampling : 4:2:0
Bit depth : 8 bits
Scan type : Progressive
Bits/(Pixel*Frame) : 0.163
Stream size : 3.94 GiB (92%)
Writing library : x264 core 130 r2273 b3065e6
Encoding settings : cabac=1 / ref=4 / deblock=1:-1:-1 / analyse=0x3:0x113 / me=umh / subme=7 / psy=1 / psy_rd=1.00:0.20 / mixed_ref=1 / me_range=16 / chroma_me=1 / trellis=2 / 8x8dct=1 / cqm=0 / deadzone=21,11 / fast_pskip=0 / chroma_qp_offset=-3 / threads=6 / lookahead_threads=1 / sliced_threads=0 / nr=0 / decimate=0 / interlaced=0 / bluray_compat=0 / constrained_intra=0 / bframes=3 / b_pyramid=2 / b_adapt=2 / b_bias=0 / direct=3 / weightb=1 / open_gop=0 / weightp=2 / keyint=250 / keyint_min=23 / scenecut=40 / intra_refresh=0 / rc_lookahead=50 / rc=2pass / mbtree=1 / bitrate=6127 / ratetol=1.0 / qcomp=0.60 / qpmin=0 / qpmax=69 / qpstep=4 / cplxblur=20.0 / qblur=0.5 / vbv_maxrate=50000 / vbv_bufsize=50000 / nal_hrd=none / ip_ratio=1.40 / aq=1:1.00
Default : Yes
Forced : No
Audio
ID : 2
Format : AC-3
Format/Info : Audio Coding 3
Mode extension : CM (complete main)
Format settings, Endianness : Big
Codec ID : A_AC3
Duration : 1h 34mn
Bit rate mode : Constant
Bit rate : 384 Kbps
Channel(s) : 6 channels
Channel positions : Front: L C R, Side: L R, LFE
Sampling rate : 48.0 KHz
Bit depth : 16 bits
Compression mode : Lossy
Stream size : 259 MiB (6%)
Title : Профессиональный (полное дублирование)
Language : Russian
Default : Yes
Forced : No

_________________
Показать сообщения:    

Текущее время: Сегодня 06:04

Часовой пояс: GMT



Вы не можете начинать темы
Вы не можете отвечать на сообщения
Вы не можете редактировать свои сообщения
Вы не можете удалять свои сообщения
Вы не можете голосовать в опросах
Вы не можете прикреплять файлы к сообщениям
Вы не можете скачивать файлы
Наши партнеры: интернет магазин Ивановского трикотажа textilla.ru