Важное объявление!
У Нас Все раздачи мультитрекерные, при нуле пиров в релизах, можете смело вставать на закачку!
 
Автор Сообщение

HUNTER

Стаж:
4 года 8 месяцев
Сообщений:
62035

Репутация: 101

[+] [-]
Вне форума [Профиль] [ЛС]

Гладиаторы из Лос-Анджелеса / East L.A. Warriors / Guerrero del Este de Los Angeles
Страна: Мексика, США
Жанр: боевик
Год выпуска: 1989
Продолжительность: 01:26:46
Перевод: Авторский (одноголосый закадровый) Алексеев
Cубтитры: нет
Оригинальная аудиодорожка: английский
Режиссер: Эддисон Рэндалл / Addison Randall
В ролях: Тони Браво, Камар Де Лос Рейс, Сабино Вилла Лобос, Джеймс Далесандро, Дэн Моро, Уильям Смит
Описание: Боевики бывают "крутые", "бешеный", "динамичные" и проч. Этот боевик - красивый. Уроки каратэ на берегу моря, среди скал; главный герой на этих же скалах, море плещет - глаз не оторвать! За счет моря со скалами фильм и смотрится, все остальное достаточно традиционно. Квартал мексиканцев - "чиканос". Молодежь обязана состоять в бандах, через "воспитание бандой" прошли здесь все, включая полицейских. Молодежные банды восточного Лос-Анджелеса, враждуя между собой, время от времени выставляют своих лучших бойцов для участия в подпольном турнире "поединков без правил" в гладиаторском стиле. Бывший член банды, а ныне супермен-одиночка Олело Корнехо решает разорвать порочный круг убийств и насилия. Он обучает юного Паоло искусству борьбы, после чего оба они выходят на ринг против главаря местной мафии. Супермены сходятся в финальном поединке, под рев толпы и закадровую музыку... Классический финал классического боевика. Любители каратэ останутся довольны.
Доп. информация: Русская звуковая дорожка взята с этой раздачи http://rutracker.org/forum/viewtopic.php?t=4484733 автору большое спасибо.
За синхронизацию огромное спасибо Нордер.
При пересборе двд были использованы программы:
PgcDemux - разделение компонентов диска на файлы
Muxman - мультиплексирование и авторинг DVD
VobBlanker - реавторинг DVD

Скрин завершения проекта

Сэмпл: http://sendfile.su/1148012
Тип релиза: DVD5 (Custom)
Контейнер: DVD-Video
Видео: NTSC 4:3 (720x480) VBR
Аудио: Russian (Dolby AC3, 192 Kbps, 2 ch)
Аудио 2: English (Dolby AC3, 384 Kbps, 6 ch)

DVDInfo

Size: 3.80 Gb ( 3 984 806 KBytes ) - DVD-5
Enabled regions: 1, 2, 3, 4, 5, 6, 7, 8
VTS_01 :
Play Length: 01:26:46
Video: NTSC 4:3 (720x480) VBR
Audio:
Russian (Dolby AC3, 2 ch)
English (Dolby AC3, 6 ch)
VTS_02 :
Play Length: 00:04:16
Video: NTSC 4:3 (720x480) VBR
Audio:
Not specified (Dolby AC3, 6 ch)
VTS_03 :
Play Length: 00:01:34
Video: NTSC 16:9 (720x480) VBR, Auto Pan&Scan
Audio:
Not specified (Dolby AC3, 6 ch)
Menu Video:
NTSC 4:3 (720x480) VBR
Menu English Language Unit :
Root Menu

MediaInfo

General
Complete name : K:\East L.A. Warriors_1989\VIDEO_TS\VTS_01_1.VOB
Format : MPEG-PS
File size : 1 024 MiB
Duration : 25mn 11s
Overall bit rate mode : Variable
Overall bit rate : 5 684 Kbps
Video
ID : 224 (0xE0)
Format : MPEG Video
Format version : Version 2
Format profile : Main@Main
Format settings, BVOP : Yes
Format settings, Matrix : Default
Format settings, GOP : M=2, N=16
Duration : 25mn 11s
Bit rate mode : Variable
Bit rate : 5 000 Kbps
Width : 720 pixels
Height : 480 pixels
Display aspect ratio : 4:3
Frame rate : 29.970 fps
Standard : NTSC
Color space : YUV
Chroma subsampling : 4:2:0
Bit depth : 8 bits
Scan type : Interlaced
Scan order : Top Field First
Compression mode : Lossy
Bits/(Pixel*Frame) : 0.483
Stream size : 900 MiB (88%)
Audio #1
ID : 189 (0xBD)-128 (0x80)
Format : AC-3
Format/Info : Audio Coding 3
Mode extension : CM (complete main)
Format settings, Endianness : Big
Muxing mode : DVD-Video
Duration : 25mn 10s
Bit rate mode : Constant
Bit rate : 192 Kbps
Channel(s) : 2 channels
Channel positions : Front: L R
Sampling rate : 48.0 KHz
Bit depth : 16 bits
Compression mode : Lossy
Delay relative to video : -33ms
Stream size : 34.6 MiB (3%)
Audio #2
ID : 189 (0xBD)-129 (0x81)
Format : AC-3
Format/Info : Audio Coding 3
Mode extension : CM (complete main)
Format settings, Endianness : Big
Muxing mode : DVD-Video
Duration : 25mn 10s
Bit rate mode : Constant
Bit rate : 384 Kbps
Channel(s) : 6 channels
Channel positions : Front: L C R, Side: L R, LFE
Sampling rate : 48.0 KHz
Bit depth : 16 bits
Compression mode : Lossy
Delay relative to video : -33ms
Stream size : 69.2 MiB (7%)
Menu

Постеры

Скриншоты меню

Скриншоты


_________________
Показать сообщения:    

Текущее время: Сегодня 11:25

Часовой пояс: GMT



Вы не можете начинать темы
Вы не можете отвечать на сообщения
Вы не можете редактировать свои сообщения
Вы не можете удалять свои сообщения
Вы не можете голосовать в опросах
Вы не можете прикреплять файлы к сообщениям
Вы не можете скачивать файлы
Наши партнеры: интернет магазин Ивановского трикотажа textilla.ru