Важное объявление!
У Нас Все раздачи мультитрекерные, при нуле пиров в релизах, можете смело вставать на закачку!
 
Автор Сообщение

HUNTER

Стаж:
4 года 7 месяцев
Сообщений:
61476

Репутация: 101

[+] [-]
Вне форума [Профиль] [ЛС]

Гитлер капут!-Год выпуска: 2008
Страна: Россия, Sveshiy Veter, Leopolis
Жанр: Комедия
Продолжительность: 01:38:39
Перевод: Не требуется
Субтитры: нет-В ролях: Павел Деревянко, Анна Семенович, Юрий Гальцев, Юрий Стоянов, Алексей Огурцов, Эвелина Блёданс, Михаил Крылов, Илья Олейников, Алексей Булдаков, Тимати, Анфиса Чехова, Ксения Собчак, Михаил Галустян, Игорь Гаспарян, Александр Безруков, Евгений Митрофанов, Юрий Михайлик, Игорь Ярошевич, Владимир Щербаков, Максим Браматкин, Игорь Головин, Виктор Заглада, Олег Киценко, Тарас Курьян, Бохдан Грачик, Андрей Балякин, Сэм Арутюнян, Андрей Тубелис, Андрей Першин, Роман Скоровский, Игорь Назаров, Алексей Жилин, Юрий Хвостенко, Виталий Гончаренко, Андрей Снисарчук, Соломея Волошин, Марта Кучерга, Александр Пырка, Елена Немцова, Владимир Савка, Ярослав Дершко, Максим Пинскер
Режиссёр: Марюс Вайсберг-Описание: Русский супер-агент — строго засекреченный шпион Шура Осечкин, он же штандартенфюрер СС Олаф Шуренберг, самоотверженно и нахально ведет подрывную деятельность в ставке Гитлера. Войне скоро конец, и это уже понятно всем, кроме фанатичного фюрера и подозрительного Мюллера. Простые труженики Рейха давно махнули на все рукой, пустились в отрыв и бесшабашно тусуются по клубам. Шуренберг скучает по дому и выращивает помидоры в тайной теплице возле своего дома на 007-Штрассе. Очередное задание Центра сваливается на него прямо с неба — вместе с новой помощницей, очаровательной и сексапильной радисткой Зиной, мечтой каждого мужчины. С такой боевой подругой недолго и про войну забыть! Но долг превыше всего: прежде чем вернуться на Родину и зажить счастливо вместе, супер-агентам Шуренбергу и Зине предстоит провернуть одну, последнюю и очень важную операцию.-Качество: BDRip 720p
Формат: MKV
Видео кодек: AVC
Аудио кодек: DTS
Видео: MPEG-4 AVC, 4807 Кбит/с, 1280x720, 23.976 fps
Аудио: DTS, 6 ch, 1510 Кбит/с, 48.0 KHz

Рейтинг:

[b][color=blue]MI[/color][/b]

Общее
Уникальный идентификатор : 183496926035682818236320931527614710196 (0x8A0C38F2D831B9CC991D03EBF222C1B4)
Уникальный идентификатор : 183496926035682818236320931527614710196 (0x8A0C38F2D831B9CC991D03EBF222C1B4) Полное имя : E:\Русские комедии\Gitler.Kaput.2008.720p.BluRay.Rus.HDCLUB.mkv
Полное имя : E:\Русские комедии\Gitler.Kaput.2008.720p.BluRay.Rus.HDCLUB.mkv Формат : Matroska
Формат : Matroska Версия формата : Version 1
Версия формата : Version 1 Размер файла : 4,35 Гбайт
Размер файла : 4,35 Гбайт Продолжительность : 1 ч. 38 м.
Продолжительность : 1 ч. 38 м. Общий поток : 6319 Кбит/сек
Общий поток : 6319 Кбит/сек Название фильма : Gitler kaput (2008) - Release for HDCLUB
Название фильма : Gitler kaput (2008) - Release for HDCLUB Дата кодирования : UTC 2009-03-23 21:49:40
Дата кодирования : UTC 2009-03-23 21:49:40 Программа кодирования : mkvmerge v2.5.3 ('Boogie') built on Mar 7 2009 15:00:41
Программа кодирования : mkvmerge v2.5.3 ('Boogie') built on Mar 7 2009 15:00:41 Библиотека кодирования : libebml v0.7.7 + libmatroska v0.8.1
Библиотека кодирования : libebml v0.7.7 + libmatroska v0.8.1
Видео
Идентификатор : 1
Идентификатор : 1 Формат : AVC
Формат : AVC Формат/Информация : Advanced Video Codec
Формат/Информация : Advanced Video Codec Профиль формата : High@L4.1
Профиль формата : High@L4.1 Параметр CABAC формата : Да
Параметр CABAC формата : Да Параметр ReFrames формата : 8 кадров
Параметр ReFrames формата : 8 кадров Идентификатор кодека : V_MPEG4/ISO/AVC
Идентификатор кодека : V_MPEG4/ISO/AVC Продолжительность : 1 ч. 38 м.
Продолжительность : 1 ч. 38 м. Битрейт : 4807 Кбит/сек
Битрейт : 4807 Кбит/сек Ширина : 1280 пикселей
Ширина : 1280 пикселей Высота : 720 пикселей
Высота : 720 пикселей Соотношение сторон : 16:9
Соотношение сторон : 16:9 Режим частоты кадров : Постоянный
Режим частоты кадров : Постоянный Частота кадров : 23,976 кадра/сек
Частота кадров : 23,976 кадра/сек Цветовое пространство : YUV
Цветовое пространство : YUV Субдискретизация насыщенности : 4:2:0
Субдискретизация насыщенности : 4:2:0 Битовая глубина : 8 бит
Битовая глубина : 8 бит Тип развёртки : Прогрессивная
Тип развёртки : Прогрессивная Бит/(Пиксели*Кадры) : 0.218
Бит/(Пиксели*Кадры) : 0.218 Размер потока : 3,23 Гбайт (74%)
Размер потока : 3,23 Гбайт (74%) Заголовок : Release for HDCLUB
Заголовок : Release for HDCLUB Библиотека кодирования : x264 core 67 r1128M 682b54d
Библиотека кодирования : x264 core 67 r1128M 682b54d Настройки программы : cabac=1 / ref=8 / deblock=1:-3:-3 / analyse=0x3:0x113 / me=umh / subme=9 / psy_rd=1.0:0.0 / mixed_ref=1 / me_range=32 / chroma_me=1 / trellis=2 / 8x8dct=1 / cqm=0 / deadzone=21,11 / chroma_qp_offset=-2 / threads=3 / nr=0 / decimate=0 / mbaff=0 / bframes=3 / b_pyramid=1 / b_adapt=2 / b_bias=0 / direct=3 / wpredb=1 / keyint=250 / keyint_min=25 / scenecut=40 / rc=2pass / bitrate=4807 / ratetol=1.0 / qcomp=0.60 / qpmin=10 / qpmax=51 / qpstep=4 / cplxblur=20.0 / qblur=0.5 / ip_ratio=1.40 / pb_ratio=1.30 / aq=1:0.90
Настройки программы : cabac=1 / ref=8 / deblock=1:-3:-3 / analyse=0x3:0x113 / me=umh / subme=9 / psy_rd=1.0:0.0 / mixed_ref=1 / me_range=32 / chroma_me=1 / trellis=2 / 8x8dct=1 / cqm=0 / deadzone=21,11 / chroma_qp_offset=-2 / threads=3 / nr=0 / decimate=0 / mbaff=0 / bframes=3 / b_pyramid=1 / b_adapt=2 / b_bias=0 / direct=3 / wpredb=1 / keyint=250 / keyint_min=25 / scenecut=40 / rc=2pass / bitrate=4807 / ratetol=1.0 / qcomp=0.60 / qpmin=10 / qpmax=51 / qpstep=4 / cplxblur=20.0 / qblur=0.5 / ip_ratio=1.40 / pb_ratio=1.30 / aq=1:0.90 Язык : English
Язык : English Default : Да
Default : Да Forced : Нет
Forced : Нет
Аудио
Идентификатор : 2
Идентификатор : 2 Формат : DTS
Формат : DTS Формат/Информация : Digital Theater Systems
Формат/Информация : Digital Theater Systems Режим : 16
Режим : 16 Параметр Endianness формата : Big
Параметр Endianness формата : Big Идентификатор кодека : A_DTS
Идентификатор кодека : A_DTS Продолжительность : 1 ч. 38 м.
Продолжительность : 1 ч. 38 м. Вид битрейта : Постоянный
Вид битрейта : Постоянный Битрейт : 1509 Кбит/сек
Битрейт : 1509 Кбит/сек Каналы : 6 каналов
Каналы : 6 каналов Расположение каналов : Front: L C R, Side: L R, LFE
Расположение каналов : Front: L C R, Side: L R, LFE Частота : 48,0 КГц
Частота : 48,0 КГц Битовая глубина : 24 бит
Битовая глубина : 24 бит Метод сжатия : С потерями
Метод сжатия : С потерями Размер потока : 1,04 Гбайт (24%)
Размер потока : 1,04 Гбайт (24%) Заголовок : DTS 5.1 @ 1536 kbps
Заголовок : DTS 5.1 @ 1536 kbps Язык : Russian
Язык : Russian Default : Да
Default : Да Forced : Нет
Forced : Нет
-

Скриншоты

-Источник:

_________________
Показать сообщения:    

Текущее время: Сегодня 21:07

Часовой пояс: GMT



Вы не можете начинать темы
Вы не можете отвечать на сообщения
Вы не можете редактировать свои сообщения
Вы не можете удалять свои сообщения
Вы не можете голосовать в опросах
Вы не можете прикреплять файлы к сообщениям
Вы не можете скачивать файлы
Наши партнеры: интернет магазин Ивановского трикотажа textilla.ru