Важное объявление!
У Нас Все раздачи мультитрекерные, при нуле пиров в релизах, можете смело вставать на закачку!
 
Автор Сообщение

ForZe

Стаж:
4 года 10 месяцев
Сообщений:
182

Репутация: 30

[+] [-]
Вне форума [Профиль] [ЛС]

Гитлер капут!-
Год выпуска: 2008-Жанр: Комедия, военный
Продолжительность: 01:38:39
Субтитры: Русские, болгарские
Навигация по главам: Есть, 12 глав-Режиссер: Марюс Вайсберг
Сценарий: Марюс Вайсберг
Продюсер: Сергей Ливнев, Бохдан Грачик
Оператор: Ирек Хартович
Композитор: Владимир Сайко-В ролях: Павел Деревянко (Шуренберг / Александр Исаевич Осечкин), Анна Семенович (Зина), Юрий Гальцев (Мюллер), Юрий Стоянов (Борман), Алексей Огурцов (Железный Ганс), Эвелина Блёданс (Фрау Оддо), Михаил Крылов (Адольф Гитлер), Илья Олейников (подпольщик / Сталин), Алексей Булдаков (Кузьмич), Тимати (50 Бундес Шиллингов), Анфиса Чехова (секс-шифровщица), Ксения Собчак (Ева Браун)-Бюджет: $3 000 000
Маркетинг: $2 000 000
Сборы в России: $9 713 500-Мировая премьера: 18 сентября 2008
Релиз на DVD: 16 октября 2008, «Настроение Video»
Релиз на Blu-ray: 5 марта 2009, «Настроение Video»-Описание: Русский супер-агент - строго засекреченный шпион Шура Осечкин, он же штандартенфюрер СС Олаф Шуренберг, самоотверженно и нахально ведет подрывную деятельность в ставке Гитлера. Войне скоро конец, и это уже понятно всем, кроме фанатичного фюрера и подозрительного Мюллера. Простые труженики Рейха давно махнули на все рукой, пустились в отрыв и бесшабашно тусуются по клубам. Шуренберг скучает по дому и выращивает помидоры в тайной теплице возле своего дома на 007-Штрассе.
Очередное задание Центра сваливается на него прямо с неба - вместе с новой помощницей, очаровательной и сексапильной радисткой Зиной, мечтой каждого мужчины. С такой боевой подругой недолго и про войну забыть! Но долг превыше всего: прежде чем вернуться на Родину и зажить счастливо вместе, супер-агентам Шуренбергу и Зине предстоит провернуть одну, последнюю и очень важную операцию.
- -
Источник: Blu-ray
Качество:
BDRip-AVC
Формат: Matroska
Видео кодек: H.264
Видео: AVC; 1088x612 (16:9); 2709 Kbps; 23,976 fps; 0,170 bpp
Аудио: Russian; AC3; 448 Kbps; 48 KHz; CBR; 6 ch
Субтитры №1: Russian; UTF-8; SRT
Субтитры №2: Bulgarian; UTF-8; SRT--

MI

Общее
Уникальный идентификатор : 236784473100857245984066296553702547709 (0xB22307DCAE9500459F543FC195C5E0FD)
Полное имя : Gitler.kaput!.2008.x264.BDRip-AVC.tRuAVC1.mkv
Формат : Matroska
Размер файла : 2,18 Гбайт
Продолжительность : 1 ч. 38 м.
Общий поток : 3159 Кбит/сек
Дата кодирования : UTC 2011-05-18 14:23:38
Программа кодирования : mkvmerge v4.7.0 ('Just Like You Imagined') сборка от Apr 21 2011 01:13:14
Библиотека кодирования : libebml v1.2.0 + libmatroska v1.1.0
Обложка : Yes
Видео
Идентификатор : 1
Формат : AVC
Формат/Информация : Advanced Video Codec
Профиль формата : High@L4.0
Параметр CABAC формата : Да
Параметр ReFrames формата : 10 кадров
Параметры GOP формата : M=1, N=26
Идентификатор кодека : V_MPEG4/ISO/AVC
Продолжительность : 1 ч. 38 м.
Битрейт : 2711 Кбит/сек
Ширина : 1088 пикс.
Высота : 612 пикс.
Соотношение сторон : 16:9
Частота кадров : 23,976 кадр/сек
Цветовое пространство : YUV
Подвыборка цветности : 4:2:0
Битовая глубина : 8 бит
Тип развёртки : Прогрессивная
Бит/(Пиксели*Кадры) : 0.170
Размер потока : 1,83 Гбайт (84%)
Заголовок : Gitler.kaput!.2008.x264.BDRip-AVC.tRuAVC
Библиотека кодирования : x264 core 115 r1995 c1e60b9
Настройки программы : cabac=1 / ref=10 / deblock=1:-3:-2 / analyse=0x3:0x133 / me=umh / subme=10 / psy=1 / psy_rd=0.95:0.00 / mixed_ref=1 / me_range=32 / chroma_me=1 / trellis=2 / 8x8dct=1 / cqm=0 / deadzone=21,11 / fast_pskip=0 / chroma_qp_offset=-2 / threads=6 / sliced_threads=0 / nr=0 / decimate=0 / interlaced=0 / bluray_compat=0 / constrained_intra=0 / bframes=9 / b_pyramid=2 / b_adapt=2 / b_bias=0 / direct=3 / weightb=1 / open_gop=0 / weightp=2 / keyint=250 / keyint_min=23 / scenecut=40 / intra_refresh=0 / rc=2pass / mbtree=0 / bitrate=2711 / ratetol=1.0 / qcomp=0.60 / qpmin=0 / qpmax=51 / qpstep=4 / cplxblur=20.0 / qblur=0.5 / ip_ratio=1.40 / pb_ratio=1.30 / aq=2:0.80 / zones=135881,141929,q=35
Язык : Russian
Основные цвета : BT.709-5, BT.1361, IEC 61966-2-4, SMPTE RP177
Характеристики трансфера : BT.709-5, BT.1361
Коэффициенты матрицы : BT.709-5, BT.1361, IEC 61966-2-4 709, SMPTE RP177
Аудио
Идентификатор : 2
Формат : AC-3
Формат/Информация : Audio Coding 3
Расширение режима : CM (complete main)
Идентификатор кодека : A_AC3
Продолжительность : 1 ч. 38 м.
Вид битрейта : Постоянный
Битрейт : 448 Кбит/сек
Каналы : 6 каналов
Расположение каналов : Front: L C R, Side: L R, LFE
Частота : 48,0 КГц
Битовая глубина : 16 бит
Метод сжатия : С потерями
Размер потока : 316 Мбайт (14%)
Заголовок : Оригинал
Язык : Russian
Текст #1
Идентификатор : 3
Формат : UTF-8
Идентификатор кодека : S_TEXT/UTF8
Идентификатор кодека/Информация : UTF-8 Plain Text
Заголовок : Русские
Язык : Russian
Текст #2
Идентификатор : 4
Формат : UTF-8
Идентификатор кодека : S_TEXT/UTF8
Идентификатор кодека/Информация : UTF-8 Plain Text
Заголовок : Болгарский
Язык : Bulgarian
Меню
00:00:00.000 : en:Chapter 1
00:03:54.692 : en:Chapter 2
00:08:53.282 : en:Chapter 3
00:19:17.364 : en:Chapter 4
00:28:46.015 : en:Chapter 5
00:40:07.154 : en:Chapter 6
00:45:48.704 : en:Chapter 7
00:51:14.780 : en:Chapter 8
00:56:36.142 : en:Chapter 9
01:05:46.359 : en:Chapter 10
01:19:09.619 : en:Chapter 11
01:31:03.416 : en:Chapter 12
-

x264 log

x264 [info]: frame I:1485 Avg QP:17.15 size:100733
x264 [info]: frame P:29879 Avg QP:20.99 size: 29611
x264 [info]: frame B:110566 Avg QP:22.99 size: 8774
x264 [info]: consecutive B-frames: 2.2% 1.8% 6.6% 21.2% 15.8% 42.3% 5.9% 1.4% 2.0% 0.8%
x264 [info]: mb I I16..4: 5.0% 78.0% 17.0%
x264 [info]: mb P I16..4: 1.5% 9.3% 1.7% P16..4: 47.7% 23.8% 5.8% 0.4% 0.4% skip: 9.5%
x264 [info]: mb B I16..4: 0.1% 0.7% 0.2% B16..8: 40.7% 10.5% 2.9% direct: 4.3% skip:40.7% L0:44.3% L1:45.7% BI:10.0%
x264 [info]: 8x8 transform intra:74.5% inter:62.5%
x264 [info]: direct mvs spatial:97.1% temporal:2.9%
x264 [info]: coded y,uvDC,uvAC intra: 83.8% 82.4% 58.5% inter: 22.8% 19.3% 7.1%
x264 [info]: i16 v,h,dc,p: 41% 13% 10% 35%
x264 [info]: i8 v,h,dc,ddl,ddr,vr,hd,vl,hu: 14% 7% 6% 10% 14% 14% 13% 11% 11%
x264 [info]: i4 v,h,dc,ddl,ddr,vr,hd,vl,hu: 24% 6% 4% 8% 13% 13% 12% 10% 10%
x264 [info]: i8c dc,h,v,p: 41% 21% 21% 17%
x264 [info]: Weighted P-Frames: Y:8.4% UV:5.2%
x264 [info]: ref P L0: 46.7% 8.1% 17.0% 8.4% 6.0% 4.6% 3.6% 2.2% 1.8% 1.4% 0.2% 0.0%
x264 [info]: ref B L0: 70.2% 14.8% 6.2% 3.2% 2.2% 1.6% 1.2% 0.5% 0.2%
x264 [info]: ref B L1: 92.7% 7.3%
x264 [info]: kb/s:2708.80
encoded 141930 frames, 4.67 fps, 2708.80 kb/s
-

_________________
Отдам инвайты на Dota 2! Если кому нужны пишите в лс
Показать сообщения:    

Текущее время: Сегодня 21:03

Часовой пояс: GMT



Вы не можете начинать темы
Вы не можете отвечать на сообщения
Вы не можете редактировать свои сообщения
Вы не можете удалять свои сообщения
Вы не можете голосовать в опросах
Вы не можете прикреплять файлы к сообщениям
Вы не можете скачивать файлы