Важное объявление!
У Нас Все раздачи мультитрекерные, при нуле пиров в релизах, можете смело вставать на закачку!
Статистика раздачи
Размер:     |    Зарегистрирован:     |    Скачан:     |   
Нет
 
     
 
 
Автор Сообщение

HUNTER

Стаж:
5 лет
Сообщений:
67945

Репутация: 101

[+] [-]
Вне форума [Профиль] [ЛС]

Гинденбург. Титаник небес / Hindenburg: Titanic of the Skies
Дата/Год выпуска: 2007
Страна: Великобритания
Жанр: Документальный, постановочный, драма
Продолжительность: 01:28:36
Перевод: Профессиональный (дублированный)
Доп. инфо о переводе: SDI Media Russia
Русские субтитры: нет
Оригинальная аудиодорожка: нет
Режиссер: Шон Гранди / Sean Grundy
Телеканал: Viasat History
Описание: 6 мая 1937 г. Гигантский немецкий дирижабль "Гинденбург" приближается к Нью-Йорку, а значит, его трансатлантическое путешествие подходит к концу. Но внезапная трагедия обрывает это увлекательное путешествие. Шедевр и гордость немецкой воздушной техники взрывается во время попытки пришвартоваться. Хватило нескольких секунд, чтобы огромную махину поглотил огонь. После путешествия в роскошных условиях перед командой и пассажирами предстал выбор: прыгнуть с почти стометровой высоты, спасаясь из обречённого дирижабля, либо сгореть в адском пламени. Гинденбургская трагедия сравни катастрофе на "Титанике". До этого ужасного происшествия за дирижаблями видели будущее комфортных воздушных путешествий, но вместе со смертью людей погибла и эта идея.
Доп. информация: Видео - прямой поток от провайдера с crop и масштабированием без сжатия
качество: IPTVRip
формат: MKV
Видео: MPEG4 Video (H264), 720x384, 25fps, 2496 Kbps
Аудио: 48 kHz, AC3 Dolby Digital, 2/0 (L,R) Surround Encoded ch, ~192 kbps
Сэмпл: http://multi-up.com/1096380

MediaInfo

GeneralUnique ID : 246037842163715722778446423847570622074 (0xB9192A2E34CF82F48D74E2E93DDDC67A)Complete name : E:\Pshichko66\Na zapis'\Документальные фильмы\Gindenburg.mkvFormat : MatroskaFormat version : Version 4 / Version 2File size : 1.66 GiBDuration : 1h 28mnOverall bit rate : 2 690 KbpsEncoded date : UTC 2016-04-04 19:46:46Writing application : mkvmerge v7.0.0 ('Where We Going') 32bit built on Jun 9 2014 15:08:34Writing library : libebml v1.3.0 + libmatroska v1.4.1
VideoID : 1Format : AVCFormat/Info : Advanced Video CodecFormat profile : Baseline@L4.1Format settings, CABAC : NoFormat settings, ReFrames : 3 framesFormat settings, GOP : N=1Codec ID : V_MPEG4/ISO/AVCDuration : 1h 28mnBit rate : 2 496 KbpsWidth : 720 pixelsHeight : 384 pixelsDisplay aspect ratio : 1.85:1Frame rate mode : ConstantFrame rate : 25.000 fpsColor space : YUVChroma subsampling : 4:2:0Bit depth : 8 bitsScan type : ProgressiveBits/(Pixel*Frame) : 0.361Stream size : 1.54 GiB (93%)Default : YesForced : No
AudioID : 2Format : AC-3Format/Info : Audio Coding 3Format profile : Dolby DigitalMode extension : CM (complete main)Format settings, Endianness : BigCodec ID : A_AC3Duration : 1h 28mnBit rate mode : ConstantBit rate : 192 KbpsChannel(s) : 2 channelsChannel positions : Front: L RSampling rate : 48.0 KHzFrame rate : 31.250 fps (1536 spf)Compression mode : LossyStream size : 122 MiB (7%)Default : YesForced : No

Скриншоты


_________________
Показать сообщения:    

Текущее время: Сегодня 20:41

Часовой пояс: GMT



Вы не можете начинать темы
Вы не можете отвечать на сообщения
Вы не можете редактировать свои сообщения
Вы не можете удалять свои сообщения
Вы не можете голосовать в опросах
Вы не можете прикреплять файлы к сообщениям
Вы не можете скачивать файлы