Ивановский Торрент трекер
Яндекс.Погода
 

[Цитировать]
HUNTER

- Год выпуска: 2013
Страна: Япония
Жанр: комедия, романтика, этти
Продолжительность: ТВ-сериал, 12 эп. по 24 мин.
Выпуск: c 05.10.2013 по 21.12.2013-Перевод:
  • русские субтитры от anipaladin & Harizmath & LindaLL (полные/вспомогательные)
-Режиссер: Ёсимото Киндзи
Студия: asread-Описание:
В одном далеком-далеком мире, где роль науки играет магия, жил да был Князь Тьмы. Соответственно, люди в стране по соседству содержали целую Школу Героев, выпускники которой отправлялись на Север биться с демоническими силами. Рауль Чейзер был одним из лучших в своем классе, но тут случилось страшное – заклятого врага убили, и его империя рухнула. Школу закрыли за ненадобностью, а учеников распустили искать мирные профессии. Как следует помыкавшись, Рауль нашел работу в магазине сети «Леон», что торгует магической бытовой техникой. И вот однажды туда пришла наниматься Фино Бладстоун, дочка того самого Князя!
А что такого? В королевстве людей царит политкорректность, и выходцев из страны демонов там хватает. Так что Фино приняли продавщицей, а Рауля назначили ее наставником. Теперь бедному парню придется учить симпатичную демоницу не только общению с клиентами, но и правильному применению швабры и… нижнего белья! А еще Фино хорошо готовит (только на процесс лучше не смотреть), быстро учится и болеет душой за родную фирму. Если направить такую энергию в мирных целях, ее точно хватит и на рост продаж, и на козни конкурентам, и на объяснение многочисленным подругам Рауля, что место уже занято!
© Hollow, World Art
Название сериала можно перевести как «Героем я, увы, не стал, зато работу подыскал!»-Информационные ссылки: AniDB || World Art || MAL-Качество: BDRip
Энкод: Winter - RG Pantheon
Тип видео: без хардсаба, без линковки
Формат: mkv
Видео: x264 (Hi10p), 1280x720, ~5300 Kbps, 23.976 fps
Аудио JAP: Vorbis, 48000Hz, ~256 Kbps, 2ch
Аудио RUS 1: AC3, 48000Hz, ~192 Kbps, 2ch (внешними файлами)
Аудио RUS 2: AC3, 48000Hz, ~192 Kbps, 2ch (внешними файлами)-

Список озвучек в раздаче

  • двухголосая (муж./жен.) от Mustadio & Лизавета (SHIZA)
  • двухголосая (муж./жен.) от Zendos & Eladiel (Anilibria)

Список эпизодов

01. I Couldn`t Be a Hero, so I`m Working the Register
02. The Demon Lord`s Daughter Is Going to Learn How to Speak to Customers

Скриншоты


Подробные тех. данные

Общее
Уникальный идентификатор : 232871139826379147663201168921436912060 (0xAF3159A29CD20FE6805BE1FF7AF479BC)
Полное имя : Z:\Anime\720p\YuuShibu [BD] [720p]\[Winter] YuuShibu 02 [BDrip 1280x720 x264 Vorbis].mkv
Формат : Matroska
Версия формата : Version 2
Размер файла : 934 Мбайт
Продолжительность : 23 м.
Режим общего битрейта : Переменный
Общий поток : 5516 Кбит/сек
Дата кодирования : UTC 2014-03-25 17:06:54
Программа кодирования : mkvmerge v2.9.8 ('C'est le bon') built on Aug 13 2009 12:49:06
Библиотека кодирования : libebml v0.7.7 + libmatroska v0.8.1
Видео
Идентификатор : 1
Формат : AVC
Формат/Информация : Advanced Video Codec
Профиль формата : High 10@L4.1
Параметр CABAC формата : Да
Параметр ReFrames формата : 9 кадров
Идентификатор кодека : V_MPEG4/ISO/AVC
Продолжительность : 23 м.
Битрейт : 5150 Кбит/сек
Ширина : 1280 пикселей
Высота : 720 пикселей
Соотношение сторон : 16:9
Режим частоты кадров : Постоянный
Частота кадров : 23,976 кадра/сек
Цветовое пространство : YUV
Субдискретизация насыщенности : 4:2:0
Битовая глубина : 10 бит
Тип развёртки : Прогрессивная
Бит/(Пиксели*Кадры) : 0.233
Размер потока : 872 Мбайт (93%)
Библиотека кодирования : x264 core 132 r2309 3b1f1f7
Настройки программы : cabac=1 / ref=9 / deblock=1:-2:-2 / analyse=0x3:0x133 / me=umh / subme=9 / psy=1 / psy_rd=0.90:0.00 / mixed_ref=1 / me_range=24 / chroma_me=1 / trellis=2 / 8x8dct=1 / cqm=0 / deadzone=21,11 / fast_pskip=1 / chroma_qp_offset=-2 / threads=12 / lookahead_threads=2 / sliced_threads=0 / nr=0 / decimate=0 / interlaced=0 / bluray_compat=0 / constrained_intra=0 / bframes=8 / b_pyramid=2 / b_adapt=2 / b_bias=0 / direct=1 / weightb=1 / open_gop=0 / weightp=2 / keyint=250 / keyint_min=23 / scenecut=40 / intra_refresh=0 / rc=crf / mbtree=0 / crf=16.0 / qcomp=0.70 / qpmin=9 / qpmax=40 / qpstep=4 / ip_ratio=1.40 / pb_ratio=1.30 / aq=1:0.90 / zones=2971,5090,b=1.2/30898,32429,b=1.2
Default : Нет
Forced : Нет
Аудио
Идентификатор : 2
Формат : Vorbis
Параметр Floor формата : 1
Идентификатор кодека : A_VORBIS
Продолжительность : 23 м.
Вид битрейта : Переменный
Битрейт : 256 Кбит/сек
Каналы : 2 канала
Частота : 48,0 КГц
Метод сжатия : С потерями
Размер потока : 43,4 Мбайт (5%)
Библиотека кодирования : libVorbis (Schaufenugget) (20101101 (Schaufenugget))
Язык : Japanese
Default : Да
Forced : Нет
- -

Информация о релизе

  • Выбор видео, перевода, озвучки, а также типа сборки материала осуществляется релизером и не подлежит обсуждению. Если вы считаете, что раздаваемый материал противоречит правилам раздела "Аниме" rutracker.org, сообщите об этом одному из модераторов раздела.
  • В случае появления нового материала или же лучшего по качеству материала релизер оставляет за собой право обновить раздачу. В этом случае вам необходимо ознакомиться с изменениями (добавлениями) и перекачать торрент.
  • Данный релиз предназначен для просмотра на ПК. Воспроизведение на иных проигрывателях не гарантируется. Для просмотра рекомендуется Media Player Classic с установленным пакетом кодеков K-Lite.
  • Данный релиз содержит 10-битное видео (Hi10p). Для корректного воспроизведения обязательно используйте кодеки, поддерживающие 10-битное видео.
    Обсудить частные случаи проблем с воспроизведением и получить дополнительную информацию можно здесь.

  • Данный релиз предназначен для просмотра с внешними субтитрами и внешними звуковыми дорожками.
    • Для просмотра с внешней звуковой дорожкой нужно:
      перекинуть файлы .mka из папки "RUS Sound [<автор(ы) озвучки>]" в одну папку с видео и переключить звуковую дорожку в плеере при просмотре. Как это сделать в разных плеерах подробно описано здесь.

    • Для просмотра с субтитрами нужно:
      перекинуть файлы .ass из папки "RUS Subtitles [<автор(ы) перевода>]" в одну папку с видео - плеер подгрузит их автоматически при открытии видео.
  • Если у вас возникли проблемы с просмотром, не связанные с описанным выше, сообщите о них автору раздачи посредством сообщения в теме или ЛС Aglenn.


Показать сообщения:    

Текущее время: 12-Дек 08:24

Часовой пояс: UTC ± 0


Вы не можете начинать темы
Вы не можете отвечать на сообщения
Вы не можете редактировать свои сообщения
Вы не можете удалять свои сообщения
Вы не можете голосовать в опросах
Вы не можете прикреплять файлы к сообщениям
Вы не можете скачивать файлы

!ВНИМАНИЕ!
Сайт не предоставляет электронные версии произведений, а занимается лишь коллекционированием и каталогизацией ссылок, присылаемых и публикуемых на форуме нашими читателями. Если вы являетесь правообладателем какого-либо представленного материала и не желаете, чтобы ссылка на него находилась в нашем каталоге, свяжитесь с нами, и мы незамедлительно удалим ее. Файлы для обмена на трекере предоставлены пользователями сайта, и администрация не несет ответственности за их содержание. Просьба не заливать файлы, защищенные авторскими правами, а также файлы нелегального содержания!