Важное объявление!
У Нас Все раздачи мультитрекерные, при нуле пиров в релизах, можете смело вставать на закачку!
 
Автор Сообщение

HUNTER

Стаж:
4 года 8 месяцев
Сообщений:
61987

Репутация: 101

[+] [-]
Вне форума [Профиль] [ЛС]

Германия, год нулевой / Germania, anno zero
Страна: Италия, Франция, Германия
Жанр: драма
Год выпуска: 1948
Продолжительность: 01:13:07
Перевод: Профессиональный (многоголосый закадровый) Кармен Видео
Перевод: Профессиональный (многоголосый закадровый) студия СВ-Дубль
Cубтитры: русские, английские
Оригинальная аудиодорожка: немецкий-Режиссер: Роберто Росселлини / Roberto Rossellini
В ролях: Эдмунд Мошке, Эрнст Питтшау, Ингетрауд Хинце, Франц-Отто Крюгер, Эрих Гюне, Хайди Бланкнер, Йо Хербст, Барбара Хинц, Карл Крюгер, Кристл Меркер, Франц фон Трюберг
Описание: 1945 год. В разрушенном бомбежками Берлине белокурый подросток, Эдмунд Кёлер пытается найти пропитание для себя и своей семьи, члены которой оказались морально сломлены капитуляцией мифа о величии нации-победителя. Впитывая, как губка, этот странный и страшный мир, мальчик в какой-то момент переходит ту тонкую грань, которая отделяет добро от зла...
IMDb || КиноПоиск-Тип релиза: BDRemux 1080p
Контейнер: MKV
Видео: MPEG-4 AVC Video, 1920x1080 at 24 fps, 34999 kbps
Аудио#1: Russian: 48 kHz, AC3, 2.0 ch, 192 kbps
Аудио#2: Russian: 48 kHz, AC3, 2.0 ch, 192 kbps
Аудио#3: German: 48 kHz, FLAC, 2.0 ch, 555 kbps
Формат субтитров: softsub (SRT)
Сэмпл

Дополнительно

Под переводом СВ-Дубль французский дубляж (эпизодически отличный от оригинальной дорожки музыкальным и шумовым сопровождением).

MediaInfo

General
Unique ID : 231639811595984561494125067809677349250 (0xAE4434775F926EC7A51CEB3D503F9182)
Complete name : Germania.anno.zero.1948.BFI.BDRemux. rutracker.mkv
Format : Matroska
Format version : Version 2
File size : 18.4 GiB
Duration : 1h 13mn
Overall bit rate mode : Variable
Overall bit rate : 35.9 Mbps
Movie name : Release for RuTracker
Writing application : mkvmerge v5.0.1 ('Es ist Sommer') built on Nov 6 2011 16:23:40
Writing library : libebml v1.2.2 + libmatroska v1.3.0
Video
ID : 1
Format : AVC
Format/Info : Advanced Video Codec
Format profile : High@L4.1
Format settings, CABAC : Yes
Format settings, ReFrames : 3 frames
Codec ID : V_MPEG4/ISO/AVC
Duration : 1h 13mn
Bit rate mode : Variable
Nominal bit rate : 35.0 Mbps
Maximum bit rate : 38.0 Mbps
Width : 1 920 pixels
Height : 1 080 pixels
Display aspect ratio : 16:9
Frame rate mode : Constant
Frame rate : 24.000 fps
Color space : YUV
Chroma subsampling : 4:2:0
Bit depth : 8 bits
Scan type : Progressive
Bits/(Pixel*Frame) : 0.703
Title : Germania.anno.zero.1948.BFI.BDRemux. rutracker
Writing library : x264 core 142 r2431 ac76440
Encoding settings : cabac=1 / ref=4 / deblock=1:-1:-1 / analyse=0x3:0x133 / me=umh / subme=10 / psy=1 / psy_rd=1.00:0.15 / mixed_ref=1 / me_range=24 / chroma_me=1 / trellis=2 / 8x8dct=1 / cqm=0 / deadzone=21,11 / fast_pskip=1 / chroma_qp_offset=-6 / threads=12 / lookahead_threads=1 / sliced_threads=0 / slices=4 / nr=0 / decimate=1 / interlaced=0 / bluray_compat=1 / constrained_intra=0 / bframes=3 / b_pyramid=1 / b_adapt=2 / b_bias=0 / direct=3 / weightb=1 / open_gop=1 / weightp=1 / keyint=24 / keyint_min=1 / scenecut=40 / intra_refresh=0 / rc_lookahead=24 / rc=2pass / mbtree=0 / bitrate=35000 / ratetol=0.1 / qcomp=0.00 / qpmin=0 / qpmax=69 / qpstep=4 / cplxblur=20.0 / qblur=0.5 / vbv_maxrate=38000 / vbv_bufsize=30000 / nal_hrd=vbr / filler=0 / ip_ratio=1.40 / pb_ratio=1.30 / aq=1:1.00
Language : German
Default : Yes
Forced : No
Color primaries : BT.709
Transfer characteristics : BT.709
Matrix coefficients : BT.709
Audio #1
ID : 2
Format : AC-3
Format/Info : Audio Coding 3
Mode extension : CM (complete main)
Format settings, Endianness : Big
Codec ID : A_AC3
Duration : 1h 13mn
Bit rate mode : Constant
Bit rate : 192 Kbps
Channel(s) : 2 channels
Channel positions : Front: L R
Sampling rate : 48.0 KHz
Bit depth : 16 bits
Compression mode : Lossy
Stream size : 100 MiB (1%)
Title : Кармен Видео
Language : Russian
Default : Yes
Forced : No
Audio #2
ID : 3
Format : AC-3
Format/Info : Audio Coding 3
Mode extension : CM (complete main)
Format settings, Endianness : Big
Codec ID : A_AC3
Duration : 1h 13mn
Bit rate mode : Constant
Bit rate : 192 Kbps
Channel(s) : 2 channels
Channel positions : Front: L R
Sampling rate : 48.0 KHz
Bit depth : 16 bits
Compression mode : Lossy
Stream size : 100 MiB (1%)
Title : СВ-Дубль
Language : Russian
Default : No
Forced : No
Audio #3
ID : 4
Format : FLAC
Format/Info : Free Lossless Audio Codec
Codec ID : A_FLAC
Duration : 1h 13mn
Bit rate mode : Variable
Channel(s) : 2 channels
Sampling rate : 48.0 KHz
Bit depth : 24 bits
Writing library : libFLAC 20080709 (UTC 2008-07-09)
Language : German
Default : No
Forced : No
Text #1
ID : 5
Format : UTF-8
Codec ID : S_TEXT/UTF8
Codec ID/Info : UTF-8 Plain Text
Language : Russian
Default : No
Forced : No
Text #2
ID : 6
Format : UTF-8
Codec ID : S_TEXT/UTF8
Codec ID/Info : UTF-8 Plain Text
Language : English
Default : No
Forced : No
Menu
00:00:00.000 : en:Too young to work
00:03:15.264 : en:Hard times
00:06:52.000 : en:Family strife
00:13:34.328 : en:A little diversion
00:16:13.207 : en:Helmut/The black market
00:19:19.164 : en:Herr Henning
00:26:38.544 : en:A successful mission
00:29:22.000 : en:Edmund's new friends
00:35:05.136 : en:Returning home
00:38:36.000 : en:Help from the doctor
00:43:57.102 : en:"The weak are destroyed"
00:47:14.623 : en:Karl-Heinz is reprimanded
00:50:12.376 : en:Edmund acts
00:52:47.658 : en:Police raid and a passing
00:56:37.000 : en:A bittersweet homecoming
00:58:24.132 : en:Edmund on his own
01:05:31.114 : en:Music among the rubble
01:09:17.212 : en:A final act

Скриншоты


_________________
Показать сообщения:    

Текущее время: Сегодня 16:31

Часовой пояс: GMT



Вы не можете начинать темы
Вы не можете отвечать на сообщения
Вы не можете редактировать свои сообщения
Вы не можете удалять свои сообщения
Вы не можете голосовать в опросах
Вы не можете прикреплять файлы к сообщениям
Вы не можете скачивать файлы
Наши партнеры: интернет магазин Ивановского трикотажа textilla.ru