Ивановский Торрент трекер
Яндекс.Погода
 

[Цитировать]
HUNTER

Геркулес 2 / Приключения Геракла / Hercules 2 / Adventures of Hercules / Le avventure dell'incredibile Ercole
Страна: США, Италия
Студия: Cannon Italia Srl
Жанр: фэнтези, приключения
Год выпуска: 1985
Продолжительность: 01:24:28
Перевод 1: Профессиональный (двухголосый закадровый) НТВ+
Перевод 2: Профессиональный (многоголосый закадровый) 5 канал
Cубтитры: английские
Оригинальная аудиодорожка: английский
Режиссер: Луиджи Коцци / Luigi Cozzi
В ролях: Лу Ферриньо, Милли Карлуччи, Соня Вивиани, Вильям Бергер, Карла Ферриньо, Клаудио Кассинелли, Фердинандо Поджи, Мария Розария Омаджо, Венантино Венантини, Лаура Ленци
Описание: Эта история произошла в далёкие времена, когда на троне Олимпа восседал бог Зевс. Завистливые боги, наверное, сошли с ума, когда однажды украли у Зевса семь молний - символ его могущества - и тем самым выпустили на свободу враждебные силы зла и хаоса. Огненное чудовище Артиос спустилось на землю и потребовало жертвоприношений. Греки вынуждены были отдавать чудовищу своих дочерей... Даже сам Зевс утратил власть над миром, а его скандальная жена Гера устроила на Олимпе настоящий феминистский переворот. Во Вселенной царит хаос, и спасти ситуацию под силу Геркулесу - супергерою с силой бога и душой человека.
II Сэмпл II IMDB II
Доп. информация:
Перевод 5 канала, оригинальная дорога и субтитры взяты с этой раздачи спасибо xo4uka4at6
Тип релиза: HDTV 1080i
Контейнер: MKV
Видео: AVC / 1920x1080 / 16:9 / 25.0fps / Bit rate 5513Kbps
Аудио 1: MP2 / 48.0 KHz / 2ch. / 192kbps / rus / dvo
Аудио 2: AC3 / 48.0 KHz / 2ch. / 192kbps / rus / mvo
Аудио 3: AC3 / 48.0 KHz / 2ch. / 192kbps / eng
Формат субтитров: softsub (SRT)

MediaInfo

Общее
Уникальный идентификатор : 206944633304397850763767044898571758257 (0x9BB0162C256D8180AD4EAC84F5712AB1)
Полное имя : E:\torrent\Adventures.of.Hercules.1985.HDTV.1080i.mkv
Формат : Matroska
Версия формата : Version 4 / Version 2
Размер файла : 3,67 Гбайт
Продолжительность : 1 ч. 24 м.
Общий поток : 6213 Кбит/сек
Дата кодирования : UTC 2014-08-13 01:55:15
Программа кодирования : mkvmerge v7.1.0 ('Good Love') 64bit built on Jul 27 2014 13:06:55
Библиотека кодирования : libebml v1.3.0 + libmatroska v1.4.1
DURATION : 01:24:28.416000000
NUMBER_OF_FRAMES : 211184
NUMBER_OF_BYTES : 121641984
_STATISTICS_WRITING_APP : mkvmerge v7.1.0 ('Good Love') 64bit built on Jul 27 2014 13:06:55
_STATISTICS_WRITING_DATE_UTC : 2014-08-13 01:55:15
_STATISTICS_TAGS : BPS DURATION NUMBER_OF_FRAMES NUMBER_OF_BYTES
Видео
Идентификатор : 1
Формат : AVC
Формат/Информация : Advanced Video Codec
Профиль формата : High@L4.0
Параметр CABAC формата : Да
Параметр ReFrames формата : 3 кадра
Параметр GOP формата : M=4, N=32
Идентификатор кодека : V_MPEG4/ISO/AVC
Продолжительность : 1 ч. 24 м.
Битрейт : 5513 Кбит/сек
Ширина : 1920 пикселей
Высота : 1080 пикселей
Соотношение сторон : 16:9
Режим частоты кадров : Постоянный
Частота кадров : 25,000 кадров/сек
Стандарт вещания : Component
Цветовое пространство : YUV
Субдискретизация насыщенности : 4:2:0
Битовая глубина : 8 бит
Тип развёртки : Чересстрочная
Порядок развёртки : Верхнее поле первое
Бит/(Пиксели*Кадры) : 0.106
Размер потока : 3,25 Гбайт (89%)
Заголовок : Aventuras.de.Hercules.1985.HDTV.1080i
Default : Да
Forced : Нет
Основные цвета : BT.709
Характеристики трансфера : BT.709
Коэффициенты матрицы : BT.709
Аудио #1
Идентификатор : 2
Формат : MPEG Audio
Версия формата : Version 1
Профиль формата : Layer 2
Идентификатор кодека : A_MPEG/L2
Идентификатор кодека/Подсказка : MP2
Продолжительность : 1 ч. 24 м.
Вид битрейта : Постоянный
Битрейт : 192 Кбит/сек
Каналы : 2 канала
Частота : 48,0 КГц
Метод сжатия : С потерями
Размер потока : 116 Мбайт (3%)
Заголовок : rus / dvo / NTV+ / MP2 / 2ch / 192Kbps
Язык : Russian
Default : Да
Forced : Нет
Аудио #2
Идентификатор : 3
Формат : AC-3
Формат/Информация : Audio Coding 3
Расширение режима : CM (complete main)
Параметр Endianness формата : Big
Идентификатор кодека : A_AC3
Продолжительность : 1 ч. 24 м.
Вид битрейта : Постоянный
Битрейт : 192 Кбит/сек
Каналы : 2 канала
Расположение каналов : Front: L R
Частота : 48,0 КГц
Битовая глубина : 16 бит
Метод сжатия : С потерями
Размер потока : 116 Мбайт (3%)
Заголовок : rus / mvo / 5 channel / AC3 / 2ch / 192Kbps
Язык : Russian
Default : Нет
Forced : Нет
Аудио #3
Идентификатор : 4
Формат : AC-3
Формат/Информация : Audio Coding 3
Расширение режима : CM (complete main)
Параметр Endianness формата : Big
Идентификатор кодека : A_AC3
Продолжительность : 1 ч. 24 м.
Вид битрейта : Постоянный
Битрейт : 192 Кбит/сек
Каналы : 2 канала
Расположение каналов : Front: L R
Частота : 48,0 КГц
Битовая глубина : 16 бит
Метод сжатия : С потерями
Размер потока : 116 Мбайт (3%)
Заголовок : original eng / AC3 / 2ch / 192Kbps
Язык : English
Default : Нет
Forced : Нет
Текст
Идентификатор : 5
Формат : UTF-8
Идентификатор кодека : S_TEXT/UTF8
Идентификатор кодека/Информация : UTF-8 Plain Text
Заголовок : subtitle eng
Язык : English
Default : Нет
Forced : Нет

Скриншот с названием фильма

Скриншоты


Показать сообщения:    

Текущее время: 22-Окт 03:44

Часовой пояс: UTC - 1


Вы не можете начинать темы
Вы не можете отвечать на сообщения
Вы не можете редактировать свои сообщения
Вы не можете удалять свои сообщения
Вы не можете голосовать в опросах
Вы не можете прикреплять файлы к сообщениям
Вы не можете скачивать файлы

!ВНИМАНИЕ!
Сайт не предоставляет электронные версии произведений, а занимается лишь коллекционированием и каталогизацией ссылок, присылаемых и публикуемых на форуме нашими читателями. Если вы являетесь правообладателем какого-либо представленного материала и не желаете, чтобы ссылка на него находилась в нашем каталоге, свяжитесь с нами, и мы незамедлительно удалим ее. Файлы для обмена на трекере предоставлены пользователями сайта, и администрация не несет ответственности за их содержание. Просьба не заливать файлы, защищенные авторскими правами, а также файлы нелегального содержания!