Важное объявление!
У Нас Все раздачи мультитрекерные, при нуле пиров в релизах, можете смело вставать на закачку!
 
Автор Сообщение

HUNTER

Стаж:
4 года 11 месяцев
Сообщений:
66027

Репутация: 101

[+] [-]
Вне форума [Профиль] [ЛС]

ГераклHercules«Множество врагов. Двенадцать подвигов. Один герой»-
Год выпуска: 2014
Страна: США
Жанр: боевик, приключения

Продолжительность: 01:38:04-Перевод: Профессиональный (полное дублирование) [iTunes]
Режиссер: Бретт Рэтнер / Brett Ratner
В ролях: Дуэйн Джонсон (Hercules), Иэн МакШейн (Amphiaraus), Джон Хёрт (Lord Cotys), Руфус Сьюэлл (Autolycus), Аксель Хенни (Tydeus), Ингрид Больсё Бердаль (Atalanta), Рис Ричи (Iolaus), Джозеф Файнс (King Eurystheus), Тобиас Зантельман (Rhesus), Питер Муллан (Sitacles), Ребекка Фергюсон (Ergenia), Исаак Эндрюс (Arius)-Описание: Более тысячи лет назад измученная душа скиталась по Земле, полубог, получеловек - Геракл - могучий сын царя богов Зевса, совершив все 12 подвигов, потерял семью и теперь находит утешение только в кровавых битвах.
За эти годы он собирает вокруг себя шестерых таких же потерянных воинов, единственным смыслом жизни для которых стали сражения и присутствие смертельной опасности. Эти мужчины и женщина никогда не задают вопрос, где, почему или с кем они идут сражаться; только, сколько им заплатят. Зная это, фракийский царь Котис нанимает этих воинов, чтобы они обучили его солдат и сделали из них самую сильную и великую армию всех времен.
--Качество: BDRip 720p
Контейнер: MKV
Видео кодек: AVC
Аудио кодек: AC3
Видео: AVC, 1280x532 (2.40:1), 4200 kbps, 23,976 fps, 0,257 bpp
Аудио: / AC3 / 5.1 / 48 kHz / 384 kbps / 16 bit -

Рейтинг


-

Скриншоты

Media Info

General
Unique ID : 170927171080740045630526139803619892064 (0x8097602E7D6AB5569A2E0A7FD72D1B60)
Complete name : D:\Геракл.2014.BDRip 720p.mkv
Format : Matroska
Format version : Version 2
File size : 3.14 GiB
Duration : 1h 38mn
Overall bit rate : 4 582 Kbps
Movie name : R.G. RustorRipper's
Encoded date : UTC 2014-11-24 11:04:36
Writing application : mkvmerge v4.0.0 ('The Stars were mine') сборка от Jun 6 2010 16:18:42
Writing library : libebml v1.0.0 + libmatroska v1.0.0
Video
ID : 1
Format : AVC
Format/Info : Advanced Video Codec
Format profile : High@L4.1
Format settings, CABAC : Yes
Format settings, ReFrames : 11 frames
Codec ID : V_MPEG4/ISO/AVC
Duration : 1h 38mn
Bit rate : 4 200 Kbps
Width : 1 280 pixels
Height : 532 pixels
Display aspect ratio : 2.40:1
Frame rate mode : Constant
Frame rate : 23.976 fps
Color space : YUV
Chroma subsampling : 4:2:0
Bit depth : 8 bits
Scan type : Progressive
Bits/(Pixel*Frame) : 0.257
Stream size : 2.81 GiB (90%)
Writing library : x264 core 128 r2216M 198a7ea
Encoding settings : cabac=1 / ref=11 / deblock=1:0:0 / analyse=0x3:0x133 / me=umh / subme=9 / psy=1 / psy_rd=1.00:0.20 / mixed_ref=1 / me_range=16 / chroma_me=1 / trellis=0 / 8x8dct=1 / cqm=0 / deadzone=21,11 / fast_pskip=1 / chroma_qp_offset=-2 / threads=2 / lookahead_threads=1 / sliced_threads=0 / nr=0 / decimate=1 / interlaced=0 / bluray_compat=0 / constrained_intra=0 / bframes=11 / b_pyramid=0 / b_adapt=0 / b_bias=0 / direct=3 / weightb=1 / open_gop=0 / weightp=0 / keyint=230 / keyint_min=23 / scenecut=40 / intra_refresh=0 / rc_lookahead=40 / rc=2pass / mbtree=1 / bitrate=4200 / ratetol=1.0 / qcomp=0.60 / qpmin=10 / qpmax=51 / qpstep=4 / cplxblur=20.0 / qblur=0.5 / ip_ratio=1.40 / aq=1:1.00
Default : Yes
Forced : No
Audio
ID : 2
Format : AC-3
Format/Info : Audio Coding 3
Mode extension : CM (complete main)
Format settings, Endianness : Big
Codec ID : A_AC3
Duration : 1h 38mn
Bit rate mode : Constant
Bit rate : 384 Kbps
Channel(s) : 6 channels
Channel positions : Front: L C R, Side: L R, LFE
Sampling rate : 48.0 KHz
Bit depth : 16 bits
Compression mode : Lossy
Stream size : 269 MiB (8%)
Title : (полное дублирование) - iTunes
Language : Russian
Default : Yes
Forced : No
Menu
00:00:00.000 : en:00:00:00.000
00:07:00.045 : en:00:07:00.045
00:09:42.749 : en:00:09:42.749
00:13:18.673 : en:00:13:18.673
00:18:37.074 : en:00:18:37.074
00:22:33.352 : en:00:22:33.352
00:24:42.815 : en:00:24:42.815
00:29:38.777 : en:00:29:38.777
00:33:03.857 : en:00:33:03.857
00:37:17.777 : en:00:37:17.777
00:43:05.333 : en:00:43:05.333
00:47:07.491 : en:00:47:07.491
00:53:20.739 : en:00:53:20.739
00:59:00.328 : en:00:59:00.328
01:05:33.555 : en:01:05:33.555
01:11:40.213 : en:01:11:40.213
01:16:05.603 : en:01:16:05.603
01:20:20.733 : en:01:20:20.733
01:26:02.616 : en:01:26:02.616
01:27:57.189 : en:01:27:57.189
-Источник:

_________________
Показать сообщения:    

Текущее время: Сегодня 18:18

Часовой пояс: GMT



Вы не можете начинать темы
Вы не можете отвечать на сообщения
Вы не можете редактировать свои сообщения
Вы не можете удалять свои сообщения
Вы не можете голосовать в опросах
Вы не можете прикреплять файлы к сообщениям
Вы не можете скачивать файлы