Ивановский Торрент трекер
Яндекс.Погода
 

[Цитировать]
HUNTER

Геракл / Подвиги Геркулеса / Hercules
Страна: США (GoldenFilms)
Жанр: Мультфильм, семейный, фэнтези
Продолжительность: 00:47:23
Год выпуска: 1996
Перевод: Профессиональный (дублированный)
Русские субтитры: нет
Режиссёр: Диана Эшкенази / Diane Eskenazi-Описание: Среди руин некогда величественного греческого храма вдруг волшебным образом оживают четыре мраморных бюста, чтобы рассказать бессмертную историю о Геркулесе — наделенном божественной силой человеке, которому судьбой было уготовано стать величайшим правителем в Истории.
Но пока Зевс добивается того, чтобы Геркулес выполнил возложенную на него миссию, могущественнейшая богиня Олимпа Гера пытается всеми силами уничтожить Геркулеса и возвести: на престол своего собственного сына, Ификла. Геркулес совершает целый ряд подвигов, чтобы, помешать Гере осуществить ее, план. Перед Геркулесом стоит задача, решение которой потребует от него не только нечеловеческой силы, но также мудрости и благородства.-Качество: DVB
Формат: TS
Видео: 528x576 (4:3) @ 768x576, 25.000 fps, MPEG-2 Video, ~2900 Kbps
Аудио 1: 48.0 KHz, MPEG-1 Audio layer 2, 1 ch, 96 Kbps (Русский)
Аудио 2: 48.0 KHz, MPEG-1 Audio layer 2, 1 ch, 96 Kbps (English)
Субтитры: отсутствуют
Релиз: Благодарность xfiles за запись мультфильма.

Подробные технические данные

ОбщееИдентификатор : 1 (0x1)Полное имя : E:\MULTFILMS\Hercules 1996 GoldenFilms.tsФормат : MPEG-TSРазмер файла : 1,08 ГбайтПродолжительность : 47 м.Режим общего битрейта : ПеременныйОбщий поток : 3258 Кбит/секМаксимальный общий битрейт : 35,5 Мбит/сек
ВидеоИдентификатор : 4113 (0x1011)Идентификатор меню : 1 (0x1)Формат : MPEG VideoВерсия формата : Version 2Профиль формата : Main@MainПараметр BVOP формата : ДаПараметр матрицы формата : ВыборочнаяПараметр GOP формата : M=3, N=12Идентификатор кодека : 2Продолжительность : 47 м.Вид битрейта : ПеременныйБитрейт : 2903 Кбит/секМаксимальный битрейт : 5000 Кбит/секШирина : 528 пикселейВысота : 576 пикселейСоотношение сторон : 4:3Частота кадров : 25,000 кадров/секЦветовое пространство : YUVСубдискретизация насыщенности : 4:2:0Битовая глубина : 8 битТип развёртки : ЧересстрочнаяПорядок развёртки : Верхнее поле первоеМетод сжатия : С потерямиБит/(Пиксели*Кадры) : 0.382Временной код первого кадра : 00:00:00:00Оригинал временного кода : Group of pictures headerРазмер потока : 984 Мбайт (89%)
Аудио #1Идентификатор : 4352 (0x1100)Идентификатор меню : 1 (0x1)Формат : MPEG AudioВерсия формата : Version 1Профиль формата : Layer 2Идентификатор кодека : 4Продолжительность : 47 м.Вид битрейта : ПостоянныйБитрейт : 96,0 Кбит/секКаналы : 1 каналЧастота : 48,0 КГцМетод сжатия : С потерямиРазмер потока : 32,5 Мбайт (3%)Язык : Russian
Аудио #2Идентификатор : 4353 (0x1101)Идентификатор меню : 1 (0x1)Формат : MPEG AudioВерсия формата : Version 1Профиль формата : Layer 2Идентификатор кодека : 4Продолжительность : 47 м.Вид битрейта : ПостоянныйБитрейт : 96,0 Кбит/секКаналы : 1 каналЧастота : 48,0 КГцМетод сжатия : С потерямиРазмер потока : 32,5 Мбайт (3%)Язык : English

Скриншоты


Показать сообщения:    

Текущее время: 22-Сен 23:25

Часовой пояс: UTC - 1


Вы не можете начинать темы
Вы не можете отвечать на сообщения
Вы не можете редактировать свои сообщения
Вы не можете удалять свои сообщения
Вы не можете голосовать в опросах
Вы не можете прикреплять файлы к сообщениям
Вы не можете скачивать файлы

!ВНИМАНИЕ!
Сайт не предоставляет электронные версии произведений, а занимается лишь коллекционированием и каталогизацией ссылок, присылаемых и публикуемых на форуме нашими читателями. Если вы являетесь правообладателем какого-либо представленного материала и не желаете, чтобы ссылка на него находилась в нашем каталоге, свяжитесь с нами, и мы незамедлительно удалим ее. Файлы для обмена на трекере предоставлены пользователями сайта, и администрация не несет ответственности за их содержание. Просьба не заливать файлы, защищенные авторскими правами, а также файлы нелегального содержания!