Ивановский Торрент трекер
Яндекс.Погода
 

[Цитировать]
димитри37

Генрих V: Битва при Азенкуре / Henry V
Страна: Великобритания
Жанр: Драма, История
Год выпуска: 1989
Продолжительность: 02:12:16-Перевод 1: Профессиональный (многоголосый закадровый)
Перевод 2: Авторский (одноголосый закадровый) Сергей Дементь
Cубтитры: английские, русские (Перевод Е. БИРУКОВОЙ субтитры подготовил rivera)
Оригинальная аудиодорожка: английский-Режиссер: Кеннет Брэна / Kenneth Branagh-В ролях: Дерек Джекоби, Кеннет Брэна, Саймон Шепард, Джеймс Ларкин, Брайан Блессид, Джеймс Симмонс, Чарльз Кей, Алек МакКоуэн-Описание:
Экранизация одноименной пьесы Уильяма Шекспира.
1415 год. Претендуя на титул короля Франции, молодой английский монарх Генрих V, вторгается на земли, которые он считает своими по праву. Несмотря на крайне тяжелую военную кампанию, английское войско продолжает одерживать победы. Но в местечке Азенкур, ослабленная армия англичан сталкивается с многократно превосходящими силами французов. Несмотря на это, Генрих, король — воин, решает дать бой, который войдет в историю…-Сэмпл: Скачать-Тип релиза: HDTVRip 720p
Контейнер: MKV-Видео: 1280x692 (1.85:1); 7 250 Kbps; 25.000 fps; 0.327 bpp
Аудио 1: Russian; AC3; 48.0 KHz; 2ch; 192 Kbps
Аудио 2: Russian; AC3; 48.0 KHz; 2ch; 192 Kbps
Аудио 3: English; AC3; 48.0 KHz; 2ch; 384 Kbps
Формат субтитров: softsub (SRT)

MediaInfo

Format : Matroska
Format version : Version 2
File size : 7.40 GiB
Duration : 2h 12mn
Overall bit rate : 8 015 Kbps
Encoded date : UTC 2013-06-21 17:50:20
Writing application : mkvmerge v5.0.1 ('Es ist Sommer') built on Oct 9 2011 11:55:43
Writing library : libebml v1.2.2 + libmatroska v1.3.0
Video
ID : 1
Format : AVC
Format/Info : Advanced Video Codec
Format profile : High@L4.1
Format settings, CABAC : Yes
Format settings, ReFrames : 9 frames
Codec ID : V_MPEG4/ISO/AVC
Duration : 2h 12mn
Bit rate : 7 250 Kbps
Width : 1 280 pixels
Height : 692 pixels
Display aspect ratio : 1.85:1
Frame rate mode : Constant
Frame rate : 25.000 fps
Color space : YUV
Chroma subsampling : 4:2:0
Bit depth : 8 bits
Scan type : Progressive
Bits/(Pixel*Frame) : 0.327
Stream size : 6.54 GiB (88%)
Writing library : x264 core 130 r2273 b3065e6
Encoding settings : cabac=1 / ref=9 / deblock=1:-3:-3 / analyse=0x3:0x113 / me=tesa / subme=10 / psy=1 / psy_rd=1.20:0.00 / mixed_ref=1 / me_range=32 / chroma_me=1 / trellis=2 / 8x8dct=1 / cqm=0 / deadzone=21,11 / fast_pskip=1 / chroma_qp_offset=-2 / threads=12 / lookahead_threads=2 / sliced_threads=0 / nr=0 / decimate=1 / interlaced=0 / bluray_compat=0 / constrained_intra=0 / bframes=8 / b_pyramid=2 / b_adapt=2 / b_bias=0 / direct=3 / weightb=0 / open_gop=0 / weightp=2 / keyint=251 / keyint_min=23 / scenecut=40 / intra_refresh=0 / rc=2pass / mbtree=0 / bitrate=7250 / ratetol=1.0 / qcomp=0.55 / qpmin=0 / qpmax=69 / qpstep=4 / cplxblur=20.0 / qblur=0.5 / ip_ratio=1.40 / pb_ratio=1.30 / aq=1:0.70
Language : English
Default : Yes
Forced : No
Audio #1
ID : 2
Format : AC-3
Format/Info : Audio Coding 3
Mode extension : CM (complete main)
Format settings, Endianness : Big
Codec ID : A_AC3
Duration : 2h 12mn
Bit rate mode : Constant
Bit rate : 192 Kbps
Channel(s) : 2 channels
Channel positions : Front: L R
Sampling rate : 48.0 KHz
Bit depth : 16 bits
Compression mode : Lossy
Stream size : 181 MiB (2%)
Title : MVO
Language : Russian
Default : Yes
Forced : No
Audio #2
ID : 3
Format : AC-3
Format/Info : Audio Coding 3
Mode extension : CM (complete main)
Format settings, Endianness : Big
Codec ID : A_AC3
Duration : 2h 12mn
Bit rate mode : Constant
Bit rate : 192 Kbps
Channel(s) : 2 channels
Channel positions : Front: L R
Sampling rate : 48.0 KHz
Bit depth : 16 bits
Compression mode : Lossy
Stream size : 181 MiB (2%)
Title : AVO Сергей Дементье
Language : Russian
Default : No
Forced : No
Audio #3
ID : 4
Format : AC-3
Format/Info : Audio Coding 3
Format profile : Dolby Digital
Mode extension : CM (complete main)
Format settings, Endianness : Big
Codec ID : A_AC3
Duration : 2h 12mn
Bit rate mode : Constant
Bit rate : 384 Kbps
Channel(s) : 2 channels
Channel positions : Front: L R
Sampling rate : 48.0 KHz
Bit depth : 16 bits
Compression mode : Lossy
Stream size : 363 MiB (5%)
Language : English
Default : No
Forced : No
Text #1
ID : 5
Format : UTF-8
Codec ID : S_TEXT/UTF8
Codec ID/Info : UTF-8 Plain Text
Title : Е. БИРУКОВОЙ
Language : Russian
Default : No
Forced : No
Text #2
ID : 6
Format : UTF-8
Codec ID : S_TEXT/UTF8
Codec ID/Info : UTF-8 Plain Text
Language : English
Default : No
Forced : No

Скриншоты

-Источник:
Показать сообщения:    

Текущее время: 20-Окт 07:58

Часовой пояс: UTC - 1


Вы не можете начинать темы
Вы не можете отвечать на сообщения
Вы не можете редактировать свои сообщения
Вы не можете удалять свои сообщения
Вы не можете голосовать в опросах
Вы не можете прикреплять файлы к сообщениям
Вы не можете скачивать файлы

!ВНИМАНИЕ!
Сайт не предоставляет электронные версии произведений, а занимается лишь коллекционированием и каталогизацией ссылок, присылаемых и публикуемых на форуме нашими читателями. Если вы являетесь правообладателем какого-либо представленного материала и не желаете, чтобы ссылка на него находилась в нашем каталоге, свяжитесь с нами, и мы незамедлительно удалим ее. Файлы для обмена на трекере предоставлены пользователями сайта, и администрация не несет ответственности за их содержание. Просьба не заливать файлы, защищенные авторскими правами, а также файлы нелегального содержания!