Ивановский Торрент трекер
Яндекс.Погода
 

[Цитировать]
HUNTER

Генетический код / The Gene Code
Год выпуска: 2011
Страна: Великобритания
Жанр: Научно-познавательный
Продолжительность: ~00:49:00 х 2 серии
Перевод: Субтитры
Русские субтитры: есть
Режиссер: Адам Резерфорд / Adam Rutherford
Описание: Наша планета полна формами жизни. В каждом живом существе находится самая потрясающая молекула в мире - ДНК. В ней находится код нашей жизни и жизни каждого существа на земле. Она просто чудесна. За десятилетие в понимании генокода произошла революция. Генетики завершили расшифровку человеческого генома. Зафиксировано 3 млрд элементов, из которых состоит человеческая ДНК. Можно сказать, что спустя 13 лет, потратив милларды долларов, удалось наконец-то прочитать книгу жизни. Но как функционирует книга жизни? Как длинный список нашей ДНК делает нас такими особенными? Как он влияет на нашу внешность, на наш ум, на продолжительность жизни и на судьбу? Как геном формирует нас? На эти и другие вопросы вы найдете ответ, посмотрев этот фильм.
Серия 1. Книга нашей жизни.
Серия 2. Расшифровка.

Релиз группы:
Доп. информация: Запись с канала "Аруц 8". Фильмы на английском языке с двойными субтитрами (вшитыми) на русском языке и иврите. Перевод на русский язык: Сергей Коган (1) и Юлия Левит (2). Субтитры: Транс Тайтлс ЛТД.
Сэмпл: http://yadi.sk/d/bJQ8tScH7cogG
качество: TVRip
формат: AVI
Видео: 1300Кbps, 704х528 (4:3), 25.000 fps, MPEG-4 Visual (DivX 5)(BVOP1)
Аудио: Аудио: 128 Kbps,48.0 KHz, 2 сhannels, MPEG Audio (MP3) (Version 1)(Layer 3)(Joint stereo)

MediaInfo

General
Complete name : D:\Док.фильмы\The Gene Code\1-The Book of Life.avi
Format : AVI
Format/Info : Audio Video Interleave
File size : 500 MiB
Duration : 48mn 39s
Overall bit rate : 1 437 Kbps
Video
ID : 0
Format : MPEG-4 Visual
Format settings, BVOP : 1
Format settings, QPel : No
Format settings, GMC : No warppoints
Format settings, Matrix : Default (H.263)
Codec ID : DX50
Codec ID/Hint : DivX 5
Duration : 48mn 39s
Bit rate : 1 300 Kbps
Width : 704 pixels
Height : 528 pixels
Display aspect ratio : 4:3
Frame rate : 25.000 fps
Color space : YUV
Chroma subsampling : 4:2:0
Bit depth : 8 bits
Scan type : Progressive
Compression mode : Lossy
Bits/(Pixel*Frame) : 0.140
Stream size : 452 MiB (90%)
Writing library : DivX 6.8.5 (UTC 2009-08-20)
Audio
ID : 1
Format : MPEG Audio
Format version : Version 1
Format profile : Layer 3
Mode : Joint stereo
Mode extension : MS Stereo
Codec ID : 55
Codec ID/Hint : MP3
Duration : 48mn 39s
Bit rate mode : Constant
Bit rate : 128 Kbps
Channel(s) : 2 channels
Sampling rate : 48.0 KHz
Compression mode : Lossy
Stream size : 44.6 MiB (9%)
Alignment : Split accross interleaves
Interleave, duration : 40 ms (1.00 video frame)
Interleave, preload duration : 500 ms

Скриншоты



Показать сообщения:    

Текущее время: 12-Дек 02:52

Часовой пояс: UTC ± 0


Вы не можете начинать темы
Вы не можете отвечать на сообщения
Вы не можете редактировать свои сообщения
Вы не можете удалять свои сообщения
Вы не можете голосовать в опросах
Вы не можете прикреплять файлы к сообщениям
Вы не можете скачивать файлы

!ВНИМАНИЕ!
Сайт не предоставляет электронные версии произведений, а занимается лишь коллекционированием и каталогизацией ссылок, присылаемых и публикуемых на форуме нашими читателями. Если вы являетесь правообладателем какого-либо представленного материала и не желаете, чтобы ссылка на него находилась в нашем каталоге, свяжитесь с нами, и мы незамедлительно удалим ее. Файлы для обмена на трекере предоставлены пользователями сайта, и администрация не несет ответственности за их содержание. Просьба не заливать файлы, защищенные авторскими правами, а также файлы нелегального содержания!