Ивановский Торрент трекер
Яндекс.Погода
 

[Цитировать]
димитри37

Гемоглобин / Bleeders
Страна: США, Канада
Жанр: Триллер
Год выпуска: 1997
Продолжительность: 01:28:46
Перевод 1: Профессиональный (двухгоголосый закадровый) R5
Перевод 2: Авторский (одноголосый закадровый) Кашкин
Cубтитры: русские
Оригинальная аудиодорожка: английский (отдельно)
Режиссер: Питер Сватек / Peter Svatek
В ролях: Рутгер Хауэр, Рой Дюпюи, Джиллиан Ферраби, Pascal Gruselle, Кристин Леман, Джоэнна Нойес, Фелиция Шульман, Жанин Терио, Мишель Брунет
Описание: Начало этой истории было положено более трех веков назад, когда юная красавица Эва Ван Даам сделала своим любовником собственного брата-близнеца и положила начало кровосмешению.
Изгнанные из родной Голландии, обреченные на вымирание из-за необъяснимой мутации, ужасные монстры находят пристанище на заброшенном острове. Уже в наше время разгневанные и напуганные жители острова пытались «стереть с лица земли» страшное семейство, загнав их в подземные катакомбы. Но они выжили, и теперь ими движет жажда крови и мести…

Качество видео: DVDRip
Формат видео: AVI
Видео: XviD, 704x528 (4:3); 25.000 fps; 1743 kbps; 0.188 bit/pixel
Аудио 1 DVO: AC3 Dolby Digital, 48 kHz, 448 kbps, 3/2 (L,C,R,l,r) ch
Аудио 2 AVO: AC3 Dolby Digital, 48 kHz, 192 kbps, 2/0 (L,R) ch
Аудио 3 ENG: AC3 Dolby Digital, 48 kHz, 448 kbps, 3/2 (L,C,R,l,r) ch
Формат субтитров: softsub (SRT)

MediaInfo

Общее
Полное имя : D:\Downloads\Bleeders.1997.DVDRip.XviD\Bleeders.1997.DVDRip.XviD.avi
Формат : AVI
Формат/Информация : Audio Video Interleave
Размер файла : 1,48 Гбайт
Продолжительность : 1 ч. 28 м.
Общий поток : 2390 Кбит/сек
Программа кодирования : VirtualDubMod 1.5.10.2 (build 2540/release)
Библиотека кодирования : VirtualDubMod build 2540/release
Видео
Идентификатор : 0
Формат : MPEG-4 Visual
Профиль формата : Advanced Simple@L5
Параметр BVOP формата : 2
Параметр QPel формата : Нет
Параметр GMC формата : Без точки перехода
Параметр матрицы формата : Default (H.263)
Идентификатор кодека : XVID
Идентификатор кодека/Подсказка : XviD
Продолжительность : 1 ч. 28 м.
Битрейт : 1743 Кбит/сек
Ширина : 704 пикселя
Высота : 528 пикселей
Соотношение сторон : 4:3
Частота кадров : 25,000 кадров/сек
Цветовое пространство : YUV
Субдискретизация насыщенности : 4:2:0
Битовая глубина : 8 бит
Тип развёртки : Прогрессивная
Метод сжатия : С потерями
Бит/(Пиксели*Кадры) : 0.188
Размер потока : 1,08 Гбайт (73%)
Библиотека кодирования : XviD 1.2.1 (UTC 2008-12-04)
Аудио #1
Идентификатор : 1
Формат : AC-3
Формат/Информация : Audio Coding 3
Расширение режима : CM (complete main)
Идентификатор кодека : 2000
Продолжительность : 1 ч. 28 м.
Вид битрейта : Постоянный
Битрейт : 448 Кбит/сек
Каналы : 5 каналов
Расположение каналов : Front: L C R, Side: L R
Частота : 48,0 КГц
Битовая глубина : 16 бит
Метод сжатия : С потерями
Размер потока : 284 Мбайт (19%)
Выравнивание : Разделение по промежуткам
Продолжительность промежутка : 40 мс. (1,00 видеокадр)
Время предзагрузки промежутка : 500 мс.
Аудио #2
Идентификатор : 2
Формат : AC-3
Формат/Информация : Audio Coding 3
Расширение режима : CM (complete main)
Идентификатор кодека : 2000
Продолжительность : 1 ч. 25 м.
Вид битрейта : Постоянный
Битрейт : 192 Кбит/сек
Каналы : 2 канала
Расположение каналов : Front: L R
Частота : 48,0 КГц
Битовая глубина : 16 бит
Метод сжатия : С потерями
Размер потока : 117 Мбайт (8%)
Выравнивание : Разделение по промежуткам
Продолжительность промежутка : 42 мс. (1,04 видеокадр)
Время предзагрузки промежутка : 500 мс.

Скриншоты

-


Показать сообщения:    

Текущее время: 18-Дек 07:15

Часовой пояс: UTC ± 0


Вы не можете начинать темы
Вы не можете отвечать на сообщения
Вы не можете редактировать свои сообщения
Вы не можете удалять свои сообщения
Вы не можете голосовать в опросах
Вы не можете прикреплять файлы к сообщениям
Вы не можете скачивать файлы

!ВНИМАНИЕ!
Сайт не предоставляет электронные версии произведений, а занимается лишь коллекционированием и каталогизацией ссылок, присылаемых и публикуемых на форуме нашими читателями. Если вы являетесь правообладателем какого-либо представленного материала и не желаете, чтобы ссылка на него находилась в нашем каталоге, свяжитесь с нами, и мы незамедлительно удалим ее. Файлы для обмена на трекере предоставлены пользователями сайта, и администрация не несет ответственности за их содержание. Просьба не заливать файлы, защищенные авторскими правами, а также файлы нелегального содержания!