Важное объявление!
У Нас Все раздачи мультитрекерные, при нуле пиров в релизах, можете смело вставать на закачку!
Статистика раздачи
Размер:     |    Зарегистрирован:     |    Скачан:     |   
Нет
 
     
 
 
Автор Сообщение

HUNTER

Стаж:
5 лет
Сообщений:
68065

Репутация: 101

[+] [-]
Вне форума [Профиль] [ЛС]

Гарри Поттер и Тайная комната / Harry Potter and the Chamber of Secrets
Страна: Великобритания, США, Германия
Студия: Warner Bros. Pictures
Жанр: фэнтези, детектив, приключения, семейный
Год выпуска: 2002
Продолжительность: 02:41:00
Перевод: Профессиональный (полное дублирование)
Cубтитры: нет
Язык оригинальной аудиодорожки: английский
Режиссер: Крис Коламбус / Chris Columbus
В ролях: Дэниэл Рэдклифф, Руперт Гринт, Эмма Уотсон, Том Фелтон, Кеннет Брана, Бонни Райт, Алан Рикман, Ричард Харрис, Мэгги Смит, Робби Колтрейн ...
Описание: Гарри Поттер переходит на второй курс Школы чародейства и волшебства Хогвартс. Эльф Добби предупреждает Гарри об опасности, которая поджидает его там, и просит больше не возвращаться в школу.
Юный волшебник не следует совету эльфа и становится свидетелем таинственных событий, разворачивающихся в Хогвартсе. Вскоре Гарри и его друзья узнают о существовании Тайной Комнаты и сталкиваются с новыми приключениями, пытаясь победить темные силы.

Сэмпл: Скачать
Ссылка на альтернативные и предыдущие раздачи: Все раздачи данного фильма
Фильм на кинохранилищах: IMDB / Кинопоиск
Тип релиза: HDTV 1080i
Контейнер: MKV
Видео: MPEG2, 1920x1080i (interlace), 16:9 (Open Matte), ~ 9420 kbps (Variable Bit rate), 29.970 fps
Аудио: Russian, Dolby Digital AC3, 6 channels, 48000 Hz, 384 kbps - полное дублирование
Аудио 2: English, Dolby Digital AC3, 6 channels, 48000 Hz, 384 kbps - оригиналРелиз отличается от Blu-ray и DVD (и их рипов) полным (Open matte) кадром 16:9 - полная наполненность экрана по вертикали без потерь по горизонтали.

MediaInfo

General
Unique ID : 197741253171966953069011730408657200463 (0x94C3947FA0DEF3718A8ECDE436A9254F)
Complete name : M:\Фильмы\Harry Potter HDTV 1080i\2.Гарри Поттер и Тайная комната (Harry Potter and the Chamber of Secrets).1080i. 2002 AC3-5.1-Rus.AC3-5.1-Eng.mkv
Format : Matroska
Format version : Version 1
File size : 11.7 GiB
Duration : 2h 40mn
Overall bit rate mode : Variable
Overall bit rate : 10.4 Mbps
Encoded date : UTC 2007-03-01 16:07:05
Writing application : mkvmerge v2.0.0 ('After The Rain Has Fallen') built on Jan 13 2007 19:58:56
Writing library : libebml v0.7.7 + libmatroska v0.8.0
Video
ID : 1
Format : MPEG Video
Format version : Version 2
Format profile : Main@High
Format settings, BVOP : Yes
Format settings, Matrix : Custom
Format settings, GOP : M=2, N=14
Codec ID : V_MPEG2
Codec ID/Info : MPEG 1 or 2 Video
Duration : 2h 40mn
Bit rate mode : Variable
Bit rate : 9 420 Kbps
Width : 1 920 pixels
Height : 1 080 pixels
Display aspect ratio : 16:9
Frame rate mode : Constant
Frame rate : 29.970 fps
Standard : Component
Color space : YUV
Chroma subsampling : 4:2:0
Bit depth : 8 bits
Compression mode : Lossy
Bits/(Pixel*Frame) : 0.152
Stream size : 10.6 GiB (91%)
Default : Yes
Forced : No
Color primaries : BT.709
Transfer characteristics : BT.709
Matrix coefficients : BT.709
Audio #1
ID : 2
Format : AC-3
Format/Info : Audio Coding 3
Mode extension : CM (complete main)
Format settings, Endianness : Big
Codec ID : A_AC3
Duration : 2h 40mn
Bit rate mode : Constant
Bit rate : 384 Kbps
Channel(s) : 6 channels
Channel positions : Front: L C R, Side: L R, LFE
Sampling rate : 48.0 KHz
Compression mode : Lossy
Stream size : 442 MiB (4%)
Language : English
Default : No
Forced : No
Audio #2
ID : 3
Format : AC-3
Format/Info : Audio Coding 3
Mode extension : CM (complete main)
Format settings, Endianness : Big
Codec ID : A_AC3
Duration : 2h 40mn
Bit rate mode : Constant
Bit rate : 384 Kbps
Channel(s) : 6 channels
Channel positions : Front: L C R, Side: L R, LFE
Sampling rate : 48.0 KHz
Compression mode : Lossy
Stream size : 442 MiB (4%)
Language : Russian
Default : Yes
Forced : No

Сравнение кадра blu-ray и HDTV

blu-ray (на примере рипа, но на наполненность кадра это не влияет):

hdtv:

Залил сравнение с blu-ray кадром и hdtv кадром.
Гарри Поттер и Философский камень / Harry Potter and the Sorcerer's Stone HDTV 1080i
Гарри Поттер и Кубок огня / Harry Potter and Goblet of Fire HDTV 1080i

_________________
Показать сообщения:    

Текущее время: Сегодня 12:48

Часовой пояс: GMT



Вы не можете начинать темы
Вы не можете отвечать на сообщения
Вы не можете редактировать свои сообщения
Вы не можете удалять свои сообщения
Вы не можете голосовать в опросах
Вы не можете прикреплять файлы к сообщениям
Вы не можете скачивать файлы