Гарри Поттер и Дары смерти: Части I и II 3D/ Harry Potter and the Deathly Hallows: Parts I-II 3D(Дэвид Йэтс / David Yates ) [2010 - 2011г., фэнтези, приключения, детектив, семейный BDrip,1080p] Half OverUnder / Вертикальная анаморфная стереопара :: Ивановский Торрент трекер
Важное объявление!
У Нас Все раздачи мультитрекерные, при нуле пиров в релизах, можете смело вставать на закачку!
 
Автор Сообщение

HUNTER

Стаж:
4 года 11 месяцев
Сообщений:
66047

Репутация: 101

[+] [-]
Вне форума [Профиль] [ЛС]

-Гарри Поттер и Дары смерти (части 1 и 2) 3D / Harry Potter and the Deathly Hallows 3D (parts 1 & 2)-
Год выпуска:2010-2011
Страна: США, Великобритания
Cтудия:
Жанр: фэнтези, приключения, детектив, семейный
Продолжительность: Часть I - 02:26:05; Часть II - 02:10:25
Перевод: Профессиональный (полное дублирование)
Субтитры: Нет-В ролях: Дэниел Рэдклифф, Эмма Уотсон, Том Фелтон, Руперт Гринт, Бонни Райт, Алан Рикман, Рэйф Файнс, Хелена Бонем Картер, Майкл Гэмбон, Брендан Глисон, Джеральдин Сомервилль, Робби Колтрейн, Девон Мюррэй, Ник Моран, Джейсон Айзекс, Уорвик Дэвис, Джон Хёрт, Эмма Томпсон
Роли дублировали: Николай Быстров, Алексей Костричкин, Лина Иванова, Всеволод Кузнецов, Алексей Рязанцев, Наталия Вдовина, Велимир Русаков, Борис Токарев, Василий Бочкарев, Людмила Ильина, Иван Жарков, Мария Иващенко, Валерий Сторожик, Полина Чекан, Андрей Казанцев, Марина Дюжева, Диомид Виноградов, Рудольф Панков-Режиссёр: Дэвид Йэтс-Описание: Гарри Поттера ждёт самое страшное испытание в жизни — смертельная схватка с Волан-де-Мортом. Ждать помощи не от кого — Гарри одинок, как никогда… Друзья и враги Гарри предстают в совершенно неожиданном свете. Граница между Добром и Злом становится всё призрачнее…В грандиозной последней главе битва между добрыми и злыми силами мира волшебников перерастает во всеобщую войну. Ставки ещё никогда не были так высоки, а поиск убежища — столь сложен. И быть может именно Гарри Поттеру придется пожертвовать всем в финальном сражении с Волан-де-Мортом. Способен ли наш герой спасти мир? И всё закончится здесь.-Качество: BDRip 1080p
Формат: AVC
Формат : Half Over Under/ Вертикальная анаморфная стереопара
Видео кодек: AVC
Аудио кодек: AC-3
Видео Часть1: x264, 1920x1080, 23.976 кадр/сек, 5223 Кбит/сек
Видео Часть2: x264, 1920x1080, 23.976 кадр/сек, 10,2 Мбит/сек
Аудио Часть1: AC3 / 6 каналов / 640 Кбит/сек / 48,0 КГц /Русский
Аудио Часть2.1: AC3 / 6 каналов / 640 Кбит/сек / 48,0 КГц / Русский
Аудио Часть2.2: AC3 / 6 каналов / 640 Кбит/сек / 48,0 КГц / Украинский
Аудио Часть2.3: AC3 / 6 каналов / 640 Кбит/сек / 48,0 КГц / English-

Скриншоты Часть1

Скриншоты Часть2

Полная информация по файлам

Видео
Идентификатор : 1
Формат : AVC
Формат/Информация : Advanced Video Codec
Профиль формата : [url=mailto:High@L4.0]High@L4.0[/url]
Параметр CABAC формата : Да
Параметр ReFrames формата : 4 кадра
Идентификатор кодека : V_MPEG4/ISO/AVC
Продолжительность : 2 ч. 26 м.
Битрейт : 5223 Кбит/сек
Ширина : 1920 пикселей
Высота : 1080 пикселей
Соотношение сторон : 16:9
Режим частоты кадров : Постоянный
Частота кадров : 23,976 кадра/сек
Цветовое пространство : YUV
Субдискретизация насыщенности : 4:2:0
Битовая глубина : 8 бит
Тип развёртки : Прогрессивная
Бит/(Пиксели*Кадры) : 0.105
Размер потока : 5,33 Гбайт (87%)
Заголовок : Harry Potter by 3D-RuGroup
Библиотека кодирования : x264 core 116 r2074 2641b9e
Настройки программы : cabac=1 / ref=4 / deblock=1:-3:-3 / analyse=0x3:0x133 / me=umh / subme=9 / psy=1 / psy_rd=1.05:0.15 / mixed_ref=1 / me_range=32 / chroma_me=1 / trellis=2 / 8x8dct=1 / cqm=0 / deadzone=21,11 / fast_pskip=0 / chroma_qp_offset=-3 / threads=3 / sliced_threads=0 / nr=0 / decimate=1 / interlaced=0 / bluray_compat=0 / constrained_intra=0 / bframes=6 / b_pyramid=2 / b_adapt=2 / b_bias=0 / direct=3 / weightb=1 / open_gop=0 / weightp=2 / keyint=250 / keyint_min=23 / scenecut=40 / intra_refresh=0 / rc_lookahead=40 / rc=crf / mbtree=1 / crf=18.0 / qcomp=0.70 / qpmin=10 / qpmax=69 / qpstep=4 / ip_ratio=1.40 / aq=1:0.70
Язык : English
Default : Да
Forced : Нет
Аудио
Идентификатор : 2
Формат : AC-3
Формат/Информация : Audio Coding 3
Расширение режима : CM (complete main)
Параметр Endianness формата : Big
Идентификатор кодека : A_AC3
Продолжительность : 2 ч. 26 м.
Вид битрейта : Постоянный
Битрейт : 640 Кбит/сек
Каналы : 6 каналов
Расположение каналов : Front: L C R, Side: L R, LFE
Частота : 48,0 КГц
Битовая глубина : 16 бит
Метод сжатия : С потерями
Размер потока : 669 Мбайт (11%)
Заголовок : Russian DUB (5.1 / 48 kHz / 640 kbps)
Язык : Russian
Default : Да
Forced : Нет
Меню
00:00:00.000 : :CHAPTER01
00:04:18.508 : :CHAPTER02
00:09:46.628 : :CHAPTER03
00:15:16.207 : :CHAPTER04
00:19:13.569 : :CHAPTER05
00:26:04.229 : :CHAPTER06
00:31:37.771 : :CHAPTER07
00:35:43.308 : :CHAPTER08
00:41:37.537 : :CHAPTER09
00:45:45.618 : :CHAPTER10
00:50:14.094 : :CHAPTER11
00:55:02.716 : :CHAPTER12
00:58:31.174 : :CHAPTER13
01:03:41.359 : :CHAPTER14
01:10:02.198 : :CHAPTER15
01:14:30.883 : :CHAPTER16
01:18:48.807 : :CHAPTER17
01:22:17.558 : :CHAPTER18
01:24:55.048 : :CHAPTER19
01:28:03.153 : :CHAPTER20
01:32:34.132 : :CHAPTER21
01:37:40.188 : :CHAPTER22
01:42:37.526 : :CHAPTER23
01:47:54.093 : :CHAPTER24
01:53:48.071 : :CHAPTER25
01:57:30.919 : :CHAPTER26
02:01:27.947 : :CHAPTER27
02:05:42.118 : :CHAPTER28
02:09:42.692 : :CHAPTER29
02:13:15.988 : :CHAPTER30
02:14:47.079 : :CHAPTER31
Видео
Идентификатор : 1
Формат : AVC
Формат/Информация : Advanced Video Codec
Профиль формата : [url=mailto:High@L4.1]High@L4.1[/url]
Параметр CABAC формата : Да
Параметр ReFrames формата : 4 кадра
Идентификатор кодека : V_MPEG4/ISO/AVC
Продолжительность : 2 ч. 10 м.
Битрейт : 10,2 Мбит/сек
Ширина : 1920 пикселей
Высота : 1080 пикселей
Соотношение сторон : 16:9
Режим частоты кадров : Постоянный
Частота кадров : 23,976 кадра/сек
Цветовое пространство : YUV
Субдискретизация насыщенности : 4:2:0
Битовая глубина : 8 бит
Тип развёртки : Прогрессивная
Бит/(Пиксели*Кадры) : 0.205
Размер потока : 9,28 Гбайт (82%)
Заголовок : Rip by Ash61
Библиотека кодирования : x264 core 113 r1884 7313bb5
Настройки программы : cabac=1 / ref=4 / deblock=1:-3:-3 / analyse=0x3:0x113 / me=umh / subme=9 / psy=1 / psy_rd=1.00:0.15 / mixed_ref=1 / me_range=16 / chroma_me=1 / trellis=2 / 8x8dct=1 / cqm=0 / deadzone=21,11 / fast_pskip=1 / chroma_qp_offset=-3 / threads=3 / sliced_threads=0 / nr=0 / decimate=1 / interlaced=0 / constrained_intra=0 / bframes=6 / b_pyramid=2 / b_adapt=1 / b_bias=0 / direct=1 / weightb=1 / open_gop=0 / weightp=2 / keyint=250 / keyint_min=23 / scenecut=40 / intra_refresh=0 / rc_lookahead=60 / rc=crf / mbtree=1 / crf=18.0 / qcomp=0.70 / qpmin=0 / qpmax=69 / qpstep=4 / ip_ratio=1.40 / aq=1:1.00
Default : Да
Forced : Нет
Аудио #1
Идентификатор : 2
Формат : AC-3
Формат/Информация : Audio Coding 3
Расширение режима : CM (complete main)
Параметр Endianness формата : Big
Идентификатор кодека : A_AC3
Продолжительность : 2 ч. 10 м.
Вид битрейта : Постоянный
Битрейт : 640 Кбит/сек
Каналы : 6 каналов
Расположение каналов : Front: L C R, Side: L R, LFE
Частота : 48,0 КГц
Битовая глубина : 16 бит
Метод сжатия : С потерями
Размер потока : 597 Мбайт (5%)
Язык : Russian
Default : Да
Forced : Нет
Аудио #2
Идентификатор : 3
Формат : AC-3
Формат/Информация : Audio Coding 3
Расширение режима : CM (complete main)
Параметр Endianness формата : Big
Идентификатор кодека : A_AC3
Продолжительность : 2 ч. 10 м.
Вид битрейта : Постоянный
Битрейт : 640 Кбит/сек
Каналы : 6 каналов
Расположение каналов : Front: L C R, Side: L R, LFE
Частота : 48,0 КГц
Битовая глубина : 16 бит
Метод сжатия : С потерями
Размер потока : 597 Мбайт (5%)
Язык : Ukrainian
Default : Нет
Forced : Нет
Аудио #3
Идентификатор : 4
Формат : AC-3
Формат/Информация : Audio Coding 3
Расширение режима : CM (complete main)
Параметр Endianness формата : Big
Идентификатор кодека : A_AC3
Продолжительность : 2 ч. 10 м.
Вид битрейта : Постоянный
Битрейт : 640 Кбит/сек
Каналы : 6 каналов
Расположение каналов : Front: L C R, Side: L R, LFE
Частота : 48,0 КГц
Битовая глубина : 16 бит
Метод сжатия : С потерями
Размер потока : 597 Мбайт (5%)
Язык : English
Default : Нет
Forced : Нет
Меню
00:00:00.000 : :01
00:02:58.220 : :02
00:06:21.172 : :03
00:10:21.871 : :04
00:14:27.992 : :05
00:20:05.621 : :06
00:22:47.783 : :07
00:25:38.620 : :08
00:30:46.803 : :09
00:34:33.655 : :10
00:40:32.263 : :11
00:45:52.249 : :12
00:50:15.471 : :13
00:54:41.028 : :14
00:59:01.288 : :15
01:03:42.068 : :16
01:07:06.064 : :17
01:11:24.489 : :18
01:14:38.933 : :19
01:23:40.849 : :20
01:29:17.727 : :21
01:31:25.021 : :22
01:36:37.667 : :23
01:41:09.105 : :24
01:46:42.313 : :25
01:50:18.362 : :26
01:54:16.683 : :27
01:58:12.877 : :28

_________________
Показать сообщения:    

Текущее время: Сегодня 10:16

Часовой пояс: GMT



Вы не можете начинать темы
Вы не можете отвечать на сообщения
Вы не можете редактировать свои сообщения
Вы не можете удалять свои сообщения
Вы не можете голосовать в опросах
Вы не можете прикреплять файлы к сообщениям
Вы не можете скачивать файлы