Ивановский Торрент трекер
Яндекс.Погода
 

[Цитировать]
Vanya_o3

GREMLIN CREATIVE STUDIO
представляет
Гарри Поттер и Белое Золото II / Harry Potter and the White Gold II
Год выпуска: 2012 (Оригинал - 2011)
Страна: США
Жанр: комедия
Продолжительность: 01:59:20
Перевод: Профессиональный (дубляж) Доп.инфо о переводе Gremlin Creative Studio
Cубтитры: нет
Режиссер: Дэвид Йейтс / David Yates
В ролях: Гарри Поттер, Рыжий Петух, Стерва Грэйнджер, Дарт Морт, Хагрид, Ленин и др.
Описание: Гарри Поттер и его верные друзья бродят по планете в наивных поисках белого порошка. Безденежье, отсутствие дозы, никчемный назойливый друг и требующая какой-то нежности девушка сменяются положительной новостью, которую ему говорит один старый знакомый, - у Темного Владыки есть целый склад белого золота! Несомненно это и становится целью очкастого сорвиголовы.
Тем временем Дарт Морт готовит ситхов для захвата власти в волшебном мире. А школа геев и лесбиянок Хогвартс - стратегически важное место для этой цели. Захватив ее, Повелитель ситхов сможет, наконец-таки, покончить со своей местью! Местью за жестокий обман с его усыновлением! И только один человек, слепо ведомый потребностью в дозе, может помешать ему. Только ОН способен спасти мир!

Доп. информация: ВНИМАНИЕ! 1. Перевод от "Gremlin Creative Studio", создателей "Гарри Поттер и Белое Золото" , т.е. там полно всякой ругани, мата и пошлости. Ввиду этого тем, кого не устраивает что-либо из вышесказанного, убедительная просьба НЕ КАЧАТЬ фильм, дабы не разводить демагогию в бестолковых постах. 2. Данный фильм является прямым продолжением предыдущей части! И заключительной частью для всей серии ГП от GCS! Ввиду этого предупреждаем: смотреть "ГП и Белое Золото 2" отдельно не имеет смысла! (Требуется знание сюжета, начиная от "ГП и Турнир Смерти".)
p.s.: релиз состоялся 12 декабря 2012г.
Официальный сайт студии
Качество: BDRip
Формат: MKV
Видео кодек: H.264
Аудио кодек: AC3
Видео: H264, 1280x532, 2.40:1, 23.976 fps, 3000 Kbps
Аудио: AC-3, 44.1 KHz, 448 Kbps, Stereo (Front: L R), 16 bits
Семпл

MediaInfo

Complete name : x:\Гарри Поттер(7.2) и Белое Золото 2_BDRip.720.mkv
Format : Matroska
File size : 2.87 GiB
Duration : 1h 59mn
Overall bit rate : 3 440 Kbps
Encoded date : UTC 2012-12-07 22:42:33
Writing application : mkvmerge v4.4.0 ('Die Wiederkehr') сборка от Oct 31 2010 21:52:48
Writing library : libebml v1.0.0 + libmatroska v1.0.0
Video
ID : 1
Format : AVC
Format/Info : Advanced Video Codec
Format profile : Baseline@L1.3
Format settings, CABAC : No
Format settings, ReFrames : 2 frames
Muxing mode : Header stripping
Codec ID : V_MPEG4/ISO/AVC
Duration : 1h 59mn
Bit rate : 2 923 Kbps
Width : 1 280 pixels
Height : 532 pixels
Display aspect ratio : 2.40:1
Frame rate : 23.976 fps
Color space : YUV
Chroma subsampling : 4:2:0
Bit depth : 8 bits
Scan type : Progressive
Bits/(Pixel*Frame) : 0.179
Stream size : 2.44 GiB (85%)
Title : GCS.HP7.2
Audio
ID : 2
Format : AC-3
Format/Info : Audio Coding 3
Mode extension : CM (complete main)
Muxing mode : Header stripping
Codec ID : A_AC3
Duration : 1h 59mn
Bit rate mode : Constant
Bit rate : 448 Kbps
Channel(s) : 2 channels
Channel positions : Front: L R
Sampling rate : 44.1 KHz
Bit depth : 16 bits
Compression mode : Lossy
Stream size : 382 MiB (13%)
Title : GCS.HP7.2
Language : Russian

Скриншот названия

Скриншоты

0 человек читают эту тему: 0 пользователей, 0 скрытых пользователей, 0 гостей

Показать сообщения:    

Текущее время: 24-Авг 00:14

Часовой пояс: UTC - 1


Вы не можете начинать темы
Вы не можете отвечать на сообщения
Вы не можете редактировать свои сообщения
Вы не можете удалять свои сообщения
Вы не можете голосовать в опросах
Вы не можете прикреплять файлы к сообщениям
Вы не можете скачивать файлы

!ВНИМАНИЕ!
Сайт не предоставляет электронные версии произведений, а занимается лишь коллекционированием и каталогизацией ссылок, присылаемых и публикуемых на форуме нашими читателями. Если вы являетесь правообладателем какого-либо представленного материала и не желаете, чтобы ссылка на него находилась в нашем каталоге, свяжитесь с нами, и мы незамедлительно удалим ее. Файлы для обмена на трекере предоставлены пользователями сайта, и администрация не несет ответственности за их содержание. Просьба не заливать файлы, защищенные авторскими правами, а также файлы нелегального содержания!