Ивановский Торрент трекер
Яндекс.Погода
 

[Цитировать]
Vanya_o3

GREMLIN CREATIVE STUDIO
представляет
Гарри Поттер и Белое Золото I / Harry Potter and the White Gold I
Год выпуска: 2011 (Оригинал - 2010)
Страна: США
Жанр: комедия
Продолжительность: 2:15:51
Перевод: Профессиональный (дубляж) Доп.инфо о переводе Gremlin Creative Studio
Cубтитры: нет
Режиссер: Дэвид Йейтс / David Yates
В ролях: Гарри Поттер, Рыжий Петух, Стерва Грейнджер, Дарт Морт, Хагрид, Долбик и др.
Описание: После смерти Ленина Гарри и его верным друзьям негде брать жизненноважное сырье. Поэтому они бросили школу и ударились в опасные поиски. Ведь единственным местом, где остался кокс, является тайный склад Дарт Морта...
Доп. информация: 1. Перевод от "Gremlin Creative Studio", создателей "Гарри Поттер и Особая уличная магия" , т.е. там полно всякой ругани, мата и пошлости. Ввиду этого, тем, кого не устраивает что-либо из вышесказанного, убедительная просьба НЕ КАЧАТЬ фильм, дабы не разводить демагогию в бестолковых постах. 2. Данный фильм является прямым продолжением предыдущих частей! Смотреть его отдельно не имеет смысла!
p.s.: релиз состоялся 11 ноября 2011г.
Официальный сайт студии
Семпл
Качество: BDRip
Формат: MKV
Видео кодек: H.264
Аудио кодек: AC3
Видео: H264, 1280x532, 4:2:0, 23.976 fps, 2610 Kbps
Аудио: AC-3, 48.0 KHz, 384 Kbps, Stereo (Front: L R), 16 bits

MediaInfo

Complete name : x:\Гарри Поттер(7.1) и Белое Золото_BDRip.720.mkv
Format : Matroska
Format version : Version 2
File size : 2.83 GiB
Duration : 2h 15mn
Overall bit rate : 2 981 Kbps
Encoded date : UTC 2011-11-12 09:00:39
Writing application : mkvmerge v4.4.0 ('Die Wiederkehr') сборка от Oct 31 2010 21:52:48
Writing library : libebml v1.0.0 + libmatroska v1.0.0
Video
ID : 1
Format : AVC
Format/Info : Advanced Video Codec
Format profile : High@L3.1
Format settings, CABAC : Yes
Format settings, ReFrames : 4 frames
Muxing mode : Header stripping
Codec ID : V_MPEG4/ISO/AVC
Duration : 2h 15mn
Bit rate : 2 610 Kbps
Width : 1 280 pixels
Height : 532 pixels
Display aspect ratio : 2.40:1
Frame rate : 23.976 fps
Color space : YUV
Chroma subsampling : 4:2:0
Bit depth : 8 bits
Scan type : Progressive
Bits/(Pixel*Frame) : 0.160
Stream size : 2.41 GiB (85%)
Title : GCS_HP7.1
Writing library : x264 core 115 r2008bm 4c552d8
Encoding settings : cabac=1 / ref=3 / deblock=1:0:0 / analyse=0x3:0x113 / me=hex / subme=7 / psy=1 / psy_rd=1.00:0.00 / mixed_ref=1 / me_range=16 / chroma_me=1 / trellis=1 / 8x8dct=1 / cqm=0 / deadzone=21,11 / fast_pskip=1 / chroma_qp_offset=-2 / threads=3 / sliced_threads=0 / nr=0 / decimate=1 / interlaced=0 / bluray_compat=0 / constrained_intra=0 / bframes=3 / b_pyramid=2 / b_adapt=1 / b_bias=0 / direct=1 / weightb=1 / open_gop=0 / weightp=2 / keyint=250 / keyint_min=23 / scenecut=40 / intra_refresh=0 / rc_lookahead=40 / rc=abr / mbtree=1 / bitrate=2610 / ratetol=1.0 / qcomp=0.60 / qpmin=0 / qpmax=69 / qpstep=4 / ip_ratio=1.40 / aq=1:1.00
Audio
ID : 2
Format : AC-3
Format/Info : Audio Coding 3
Mode extension : CM (complete main)
Muxing mode : Header stripping
Codec ID : A_AC3
Duration : 2h 15mn
Bit rate mode : Constant
Bit rate : 384 Kbps
Channel(s) : 2 channels
Channel positions : Front: L R
Sampling rate : 48.0 KHz
Bit depth : 16 bits
Compression mode : Lossy
Stream size : 373 MiB (13%)
Title : GCS_HP7.1_Sound
Language : Russian

Скриншоты

Топик был перенесен из форума Новые релизы в форум Пучков Дмитрий Юрьевич [Гоблин / Goblin]
димитри37


Показать сообщения:    

Текущее время: 15-Дек 20:00

Часовой пояс: UTC ± 0


Вы не можете начинать темы
Вы не можете отвечать на сообщения
Вы не можете редактировать свои сообщения
Вы не можете удалять свои сообщения
Вы не можете голосовать в опросах
Вы не можете прикреплять файлы к сообщениям
Вы не можете скачивать файлы

!ВНИМАНИЕ!
Сайт не предоставляет электронные версии произведений, а занимается лишь коллекционированием и каталогизацией ссылок, присылаемых и публикуемых на форуме нашими читателями. Если вы являетесь правообладателем какого-либо представленного материала и не желаете, чтобы ссылка на него находилась в нашем каталоге, свяжитесь с нами, и мы незамедлительно удалим ее. Файлы для обмена на трекере предоставлены пользователями сайта, и администрация не несет ответственности за их содержание. Просьба не заливать файлы, защищенные авторскими правами, а также файлы нелегального содержания!