Важное объявление!
У Нас Все раздачи мультитрекерные, при нуле пиров в релизах, можете смело вставать на закачку!
 
Автор Сообщение

HUNTER

Стаж:
4 года 8 месяцев
Сообщений:
62128

Репутация: 101

[+] [-]
Вне форума [Профиль] [ЛС]

Ганнибал
Hannibal
Сезон: 1 / Серии: 1-13 из 13

-

  • Год производства: 2013

  • Страна: США

  • Жанр: драма, криминал, триллер

  • Продолжительность: ~00:45:00

  • Кол-во серий/сезонов: Сезон: 1 / Серии: 1-13 из 13

  • Перевод: Профессиональный (Многоголосый закадровый) (AlexFilm), (Sony Sci-Fi)

  • Субтитры: Russian (forced), Russian (full by lostrator & GeekiLeaks.RU), Ukrainian (John23), English-
  • Режиссер: Гильермо Наварро, Майкл Раймер, Дэвид Слэйд-
  • В ролях: Хью Дэнси, Мадс Миккельсен, Лоуренс Фишборн, Джиллиан Андерсон, Кэролин Давернас, Хеттьен Парк, Скотт Томпсон, Аарон Абрамс, Лана Жан Чоростецки и др.
    -
  • Описание: Один из самых знаменитых литературных персонажей впервые появляется на телеэкранах. Встречайте: психиатр, серийный убийца и просто гурман. Доктор Ганнибал Лектер. В новой драме от Брайана Фуллера (Pushing Daisies, Heroes), основанной на классических романах Томаса Харриса, мы увидим начало этой невероятной истории.
    Уилл Грэм (Хью Дэнси) — одаренный криминальный психолог, занимающийся поимкой серийных убийц. Уникальный способ мышления Грэма дает ему невероятную способность проникать в разум любого, даже психопата. Он словно понимает, что движет ими. Но когда разум извращенного убийцы, которого он преследует, оказывается слишком сложен даже для понимания Уилла, он обращается за помощью к доктору Лектеру (Мадс Миккельсен), одному из лучших психиатров страны. Уилл и Ганнибал (о чьей темной стороне известно лишь зрителю) составляют великолепную команду, от которой не уйдет ни один злодей. Если бы Уилл только знал…
    -
  • Качество видео: WEB-DL 1080p

  • Формат видео: mkv

  • Видео кодек: H.264

  • Аудио кодек: AC3

  • Видео: 1912x1072 at 23.976 fps, MPEG-4 AVC, ~4980 kbps avg

  • Аудио#1: 48 kHz, AC3, 3/2 (L,C,R,l,r) + LFE ch, ~384.00 kbps avg (AlexFilm)

  • Aудио#2: 48 kHz, AC3, 3/2 (L,C,R,l,r) + LFE ch, ~384.00 kbps avg |Многоголосый закадровый, Sony Sci-Fi|

  • Аудио#3: 48 kHz, AC3, 3/2 (L,C,R,l,r) + LFE ch, ~384.00 kbps avg

Скриншоты

MediaInfo

Код: copyText_writeLink('this.parentNode.parentNode.nextSibling.nextSibling');
General
Unique ID : 223874788013700384552686130515992104276 (0xA86CB73EDBBFE6E69E8FCD3D8EE3CD54)
Complete name : D:\Торенты\Hannibal S01 WEB-DL 1080p HDclub\Hannibal.1x01.Aperitif.WEB-DL.1080p.DD5.1.HDCLUB.-lostrator.mkv
Format : Matroska
Format version : Version 4 / Version 2
File size : 1.78 GiB
Duration : 43mn 27s
Overall bit rate : 5 865 Kbps
Movie name : Ганнибал 1x01 - Aperitif @ Cпециально для HDclub.org
Encoded date : UTC 2013-04-10 19:11:48
Writing application : mkvmerge v6.0.0 ('Coming Up For Air') built on Jan 20 2013 09:52:00
Writing library : libebml v1.3.0 + libmatroska v1.4.0
Attachment : Yes / Yes / Yes
Video
ID : 1
Format : AVC
Format/Info : Advanced Video Codec
Format profile : [url=mailto:High@L4.0]High@L4.0[/url]
Format settings, CABAC : Yes
Format settings, ReFrames : 4 frames
Codec ID : V_MPEG4/ISO/AVC
Duration : 43mn 27s
Bit rate : 4 980 Kbps
Width : 1 912 pixels
Height : 1 072 pixels
Display aspect ratio : 16:9
Frame rate mode : Constant
Frame rate : 23.976 fps
Color space : YUV
Chroma subsampling : 4:2:0
Bit depth : 8 bits
Scan type : Progressive
Bits/(Pixel*Frame) : 0.101
Stream size : 1.51 GiB (85%)
Language : English
Default : Yes
Forced : No
Color primaries : BT.709
Transfer characteristics : BT.709
Matrix coefficients : BT.709
Audio #1
ID : 2
Format : AC-3
Format/Info : Audio Coding 3
Mode extension : CM (complete main)
Format settings, Endianness : Big
Codec ID : A_AC3
Duration : 43mn 27s
Bit rate mode : Constant
Bit rate : 384 Kbps
Channel(s) : 6 channels
Channel positions : Front: L C R, Side: L R, LFE
Sampling rate : 48.0 KHz
Bit depth : 16 bits
Compression mode : Lossy
Stream size : 119 MiB (7%)
Title : Dolby Digital 5.1 @ 384 kbps @ AlexFilm (c)
Language : Russian
Default : Yes
Forced : No
Audio #2
ID : 3
Format : AC-3
Format/Info : Audio Coding 3
Mode extension : CM (complete main)
Format settings, Endianness : Big
Codec ID : A_AC3
Duration : 43mn 27s
Bit rate mode : Constant
Bit rate : 384 Kbps
Channel(s) : 6 channels
Channel positions : Front: L C R, Side: L R, LFE
Sampling rate : 48.0 KHz
Bit depth : 16 bits
Compression mode : Lossy
Stream size : 119 MiB (7%)
Title : Dolby Digital 5.1 @ 384 kbps
Language : English
Default : No
Forced : No
Text #1
ID : 4
Format : ASS
Codec ID : S_TEXT/ASS
Codec ID/Info : Advanced Sub Station Alpha
Compression mode : Lossless
Title : Russian @ ASS @ Forced
Language : Russian
Default : Yes
Forced : No
Text #2
ID : 5
Format : ASS
Codec ID : S_TEXT/ASS
Codec ID/Info : Advanced Sub Station Alpha
Compression mode : Lossless
Title : Russian @ ASS @ Full GeekiLeaks.RU
Language : Russian
Default : No
Forced : No
Text #3
ID : 6
Format : ASS
Codec ID : S_TEXT/ASS
Codec ID/Info : Advanced Sub Station Alpha
Compression mode : Lossless
Title : Ukrainian @ ASS @ by John23
Language : Ukrainian
Default : No
Forced : No
Text #4
ID : 7
Format : ASS
Codec ID : S_TEXT/ASS
Codec ID/Info : Advanced Sub Station Alpha
Compression mode : Lossless
Title : English @ ASS
Language : English
Default : No
Forced : No
Menu
00:00:00.000 : en:Глава 01.
00:10:50.000 : en:Глава 02.
00:15:56.000 : en:Глава 03.
00:22:17.000 : en:Глава 04.
00:28:12.000 : en:Глава 05.
00:37:57.000 : en:Глава 06.
00:42:27.000 : en:Глава 07.

Внимание! Раздача ведётся путём добавления новых серий

Внимание! Раздача ведётся путём добавления новых серий; при каждом добавлении создётся новый торрент. Чтобы начать докачку новой серии, пользователям необходимо сделать следующее:
  • остановить скачивание,
  • удалить старый торрент у себя из клиента (старые серии удалять не надо),
  • скачать новый торрент и запустить его у себя в клиенте вместо старого, при этом указать клиенту путь в старую папку куда и должно происходить скачивание новых серий.
Ваш клиент при этом должен произвести хеширование (проверку) старой папки (если не производит сам - помогите ему сделать это), и будет докачивать только те серии которых у вас ещё нет. Старые серии при этом не удаляются, а продолжают раздаваться!
Eсли вы уже удалили старые серии, то предотвратить повторную закачку старых серий можно, отжав галочку в соответсвующих местах при запуске нового торрента. По возможности, желательно не удалять старые серии как можно дольше, чтобы релизёр не столько продолжал раздавать старые серии, а смог сконцентрироваться на новых.

_________________
Показать сообщения:    

Текущее время: Сегодня 01:35

Часовой пояс: GMT



Вы не можете начинать темы
Вы не можете отвечать на сообщения
Вы не можете редактировать свои сообщения
Вы не можете удалять свои сообщения
Вы не можете голосовать в опросах
Вы не можете прикреплять файлы к сообщениям
Вы не можете скачивать файлы
Наши партнеры: интернет магазин Ивановского трикотажа textilla.ru