Важное объявление!
У Нас Все раздачи мультитрекерные, при нуле пиров в релизах, можете смело вставать на закачку!
 
Автор Сообщение

HUNTER

Стаж:
4 года 7 месяцев
Сообщений:
61590

Репутация: 101

[+] [-]
Вне форума [Профиль] [ЛС]

Ганга Дин / Gunga Din
Страна: США
Жанр: приключения, военный
Год выпуска: 1939
Продолжительность: 01:57:05
Перевод: Профессиональный (многоголосый закадровый)
Cубтитры: английские
Оригинальная аудиодорожка: английский
Режиссер: Джордж Стивенс / George Stevens
В ролях: Кэри Грант, Виктор МакЛаглен, Дуглас Фэрбенкс мл., Сэм Джаффе, Эдуардо Чианнелли, Джоан Фонтейн, Монтегю Лав, Роберт Кут, Эбнер Биберман, Ламсден Хейр
Описание: Горы Индии. Конец девятнадцатого века. Банда туземных повстанцев нарушает линию телеграфа и уничтожает британский блок-пост в одном из ущелий. Для выяснения обстоятельств и восстановления связи туда отравляют трех ветеранов — сержантов Каттера, МакЧесни и Бэллантайна. Эти парни отъявленные забияки, мастера шпаги, меткие стрелки и авантюристы — они давно жаждут найти какой-нибудь старинный индийский клад, но фортуна к ним не милостива. Во время марша их сопровождает небольшой отряд солдат-индусов и носильщики воды, которых в Индии зовут «бхисти» — один из них Ганга Дин, у которого в жизни только одна мечта — стать солдатом. Там они сталкиваются с сектой убийц Тагов, которая ранее считалась мрачной легендой прошлого, а теперь вновь обрела силу и уничтожает мирное население. Предстоит решающая битва, в которой каждому суждено сыграть свою роль…
Доп. информация:


За русскую дорожку спасибо Ultam
Сэмпл: http://sendfile.su/1021613
Тип релиза: WEB-DL 720p
Контейнер: MKV
Видео: AVC, 982x720, L3.1, 23.976fps, 4037kbps
Аудио 1: Russian: AC3, 48000Hz, 2ch, 192kbps
Аудио 2: English: AC3, 48000Hz, 1ch, 192kbps - DVD
Аудио 3: English: AAC, 48000Hz, 2ch, 115kbps - WEB-DL
Аудио 4: English: AC3, 48000Hz, 2ch, 192kbps - commentary by Rudy Behlmer
Формат субтитров: softsub (SRT)

MediaInfo

Общее
Уникальный идентификатор : 173341459580173345557483773247588078506 (0x826859CB77CBACE6ABE1C577058713AA)
Полное имя : T:\Ганга Дин (Gunga Din) (WEB-DL 720p).mkv
Формат : Matroska
Версия формата : Version 4 / Version 2
Размер файла : 3,87 Гбайт
Продолжительность : 1 ч. 57 м.
Общий поток : 4727 Кбит/сек
Дата кодирования : UTC 2014-09-11 11:31:02
Программа кодирования : mkvmerge v6.9.1 ('Blue Panther') 64bit built on Apr 18 2014 18:23:38
Библиотека кодирования : libebml v1.3.0 + libmatroska v1.4.1
Видео
Идентификатор : 1
Формат : AVC
Формат/Информация : Advanced Video Codec
Профиль формата : High@L3.1
Параметр CABAC формата : Нет
Параметр ReFrames формата : 2 кадра
Идентификатор кодека : V_MPEG4/ISO/AVC
Продолжительность : 1 ч. 57 м.
Ширина : 982 пикселя
Высота : 720 пикселей
Соотношение сторон : 4:3
Режим частоты кадров : Постоянный
Частота кадров : 23,976 кадра/сек
Цветовое пространство : YUV
Субдискретизация насыщенности : 4:2:0
Битовая глубина : 8 бит
Тип развёртки : Прогрессивная
Язык : English
Default : Да
Forced : Нет
Основные цвета : BT.709
Характеристики трансфера : BT.709
Коэффициенты матрицы : BT.709
Аудио #1
Идентификатор : 2
Формат : AC-3
Формат/Информация : Audio Coding 3
Расширение режима : CM (complete main)
Параметр Endianness формата : Big
Идентификатор кодека : A_AC3
Продолжительность : 1 ч. 57 м.
Вид битрейта : Постоянный
Битрейт : 192 Кбит/сек
Каналы : 2 канала
Расположение каналов : Front: L R
Частота : 48,0 КГц
Битовая глубина : 16 бит
Метод сжатия : С потерями
Размер потока : 161 Мбайт (4%)
Язык : Russian
Default : Да
Forced : Нет
Аудио #2
Идентификатор : 3
Формат : AC-3
Формат/Информация : Audio Coding 3
Расширение режима : CM (complete main)
Параметр Endianness формата : Big
Идентификатор кодека : A_AC3
Продолжительность : 1 ч. 57 м.
Вид битрейта : Постоянный
Битрейт : 192 Кбит/сек
Каналы : 1 канал
Расположение каналов : Front: C
Частота : 48,0 КГц
Битовая глубина : 16 бит
Метод сжатия : С потерями
Размер потока : 161 Мбайт (4%)
Заголовок : DVD
Язык : English
Default : Нет
Forced : Нет
Аудио #3
Идентификатор : 4
Формат : AAC
Формат/Информация : Advanced Audio Codec
Профиль формата : LC
Идентификатор кодека : A_AAC
Продолжительность : 1 ч. 57 м.
Каналы : 2 канала
Расположение каналов : Front: L R
Частота : 48,0 КГц
Метод сжатия : С потерями
Заголовок : WEB-DL
Язык : English
Default : Нет
Forced : Нет
Аудио #4
Идентификатор : 5
Формат : AC-3
Формат/Информация : Audio Coding 3
Расширение режима : CM (complete main)
Параметр Endianness формата : Big
Идентификатор кодека : A_AC3
Продолжительность : 1 ч. 57 м.
Вид битрейта : Постоянный
Битрейт : 192 Кбит/сек
Каналы : 2 канала
Расположение каналов : Front: L R
Частота : 48,0 КГц
Битовая глубина : 16 бит
Метод сжатия : С потерями
Размер потока : 161 Мбайт (4%)
Заголовок : commentary by Rudy Behlmer
Язык : English
Default : Нет
Forced : Нет
Текст
Идентификатор : 6
Формат : UTF-8
Идентификатор кодека : S_TEXT/UTF8
Идентификатор кодека/Информация : UTF-8 Plain Text
Язык : English
Default : Нет
Forced : Нет
Меню
00:00:00.000 : en:Credits
00:02:19.000 : en:Gone Dead
00:06:41.000 : en:Sergeants Three
00:10:42.000 : en:Arrival at Tantrapur
00:15:06.000 : en:Playful Subjects
00:19:06.000 : en:Your Graves Are Dug
00:23:04.000 : en:Dynamite Fight
00:27:11.000 : en:Sign of the Thuggees
00:31:43.000 : en:Very Regimental
00:35:41.000 : en:Daddy's Girl
00:38:47.000 : en:Punching Up the Punch
00:44:16.000 : en:Down Higginbotham's Hatch
00:47:13.000 : en:Reassigned
00:49:51.000 : en:Make Way for the Expedition
00:55:34.000 : en:Jailbreak Tool
00:59:25.000 : en:Playing Bridge
01:01:32.000 : en:Cult of Kall
01:06:59.000 : en:Cutter's Gambit
01:10:23.000 : en:Signing On
01:17:28.000 : en:Temple Trap
01:20:02.000 : en:Snake Pit
01:24:50.000 : en:Superior Strategy
01:26:56.000 : en:Golden Targets
01:29:27.000 : en:Guru's Madness
01:37:22.000 : en:For Faith and Country
01:40:19.000 : en:March Toward Ambush
01:44:06.000 : en:Warning Bugle
01:46:05.000 : en:Turnabout Victory
01:51:02.000 : en:Honored Dead
01:54:17.000 : en:A Better Man
01:55:51.000 : en:Cast List

Скриншоты


_________________
Показать сообщения:    

Текущее время: Сегодня 17:36

Часовой пояс: GMT



Вы не можете начинать темы
Вы не можете отвечать на сообщения
Вы не можете редактировать свои сообщения
Вы не можете удалять свои сообщения
Вы не можете голосовать в опросах
Вы не можете прикреплять файлы к сообщениям
Вы не можете скачивать файлы
Наши партнеры: интернет магазин Ивановского трикотажа textilla.ru