Важное объявление!
У Нас Все раздачи мультитрекерные, при нуле пиров в релизах, можете смело вставать на закачку!
Статистика раздачи
Размер:     |    Зарегистрирован:     |    Скачан:     |   
Нет
 
     
 
 
Автор Сообщение

ForZe

Стаж:
5 лет 1 месяц
Сообщений:
182

Репутация: 30

[+] [-]
Вне форума [Профиль] [ЛС]

Галактический футбол / Galactik Football [TV-1] (1-26 серии) JetiX
Страна: Франция
Жанр: Приключения / Спорт
Продолжительность: 1 серия ~25 мин.
Год выпуска: 2006
Перевод: Профессиональный (дублированный) JetiX
Субтитры: Отсутствуют
Режиссёры: Фредерик Дибовски и Антуан Шарреирон
Описание:
На планете Акиллиана мощную таинственную энергию, называемую «потоком», именуют Дыханием. Её использование запрещено во всей Вселенной — разрешено лишь для игры в Галактический футбол. Пятнадцать лет назад в результате таинственного взрыва планета покрылась снегом, и Дыхание Акиллианы было утеряно. Жители перестали играть в Галактический футбол... Но на планету возвращается Арч — чемпион, одержавший огромное количество побед!
Его цель — собрать новую команду и победить в турнире!
-Качество: DVDRip
Контейнер: MKV
Видео кодек: x264
Аудио кодек: AC-3
Видео: 640x480 (1.333), 25 fps, AVC at 1266 Кбит/сек
Аудио [RUS]: 48 kHz, AC-3, 2 ch, ~192 kbps avg [Дубляж JetiX]
-

Отчет MediaInfo

Общее
Уникальный идентификатор : 194425665434731906145022877087888124945 (0x92450566EDBB8ED0AD6305A515F52C11)
Полное имя : C:\Users\user\Desktop\[Pokemon_Alliance]_Galactik_Football_[TV-1]_[pobel]\[Pokemon_Alliance]_Galactik_Football_[TV-1]_Episode_01_[R5-Jetix]_[pobel].mkv
Формат : Matroska
Версия формата : Version 2
Размер файла : 257 Мбайт
Продолжительность : 24 м.
Общий поток : 1488 Кбит/сек
Дата кодирования : UTC 2012-03-25 13:34:51
Программа кодирования : mkvmerge v5.4.0 ('Piper') built on Mar 10 2012 13:34:39
Библиотека кодирования : libebml v1.2.3 + libmatroska v1.3.0
Видео
Идентификатор : 1
Формат : AVC
Формат/Информация : Advanced Video Codec
Профиль формата : High@L4.1
Параметр CABAC формата : Да
Параметр ReFrames формата : 3 кадра
Режим смешивания : Header stripping
Идентификатор кодека : V_MPEG4/ISO/AVC
Продолжительность : 24 м.
Битрейт : 1266 Кбит/сек
Ширина : 640 пикселей
Высота : 480 пикселей
Соотношение сторон : 4:3
Режим частоты кадров : Переменный
Частота кадров : 25,000 кадров/сек
Цветовое пространство : YUV
Субдискретизация насыщенности : 4:2:0
Битовая глубина : 8 бит
Тип развёртки : Прогрессивная
Бит/(Пиксели*Кадры) : 0.165
Размер потока : 218 Мбайт (85%)
Библиотека кодирования : x264 core 120 r2146M bcd41db
Настройки программы : cabac=1 / ref=3 / deblock=1:0:0 / analyse=0x3:0x133 / me=hex / subme=7 / psy=1 / psy_rd=1.00:0.20 / mixed_ref=1 / me_range=16 / chroma_me=1 / trellis=1 / 8x8dct=1 / cqm=0 / deadzone=21,11 / fast_pskip=1 / chroma_qp_offset=-3 / threads=8 / sliced_threads=0 / nr=0 / decimate=1 / interlaced=0 / bluray_compat=0 / constrained_intra=0 / bframes=3 / b_pyramid=1 / b_adapt=2 / b_bias=0 / direct=3 / weightb=1 / open_gop=0 / weightp=2 / keyint=250 / keyint_min=25 / scenecut=40 / intra_refresh=0 / rc_lookahead=40 / rc=crf / mbtree=1 / crf=18.0 / qcomp=0.60 / qpmin=10 / qpmax=51 / qpstep=4 / ip_ratio=1.40 / aq=1:1.00
Язык : French
Default : Да
Forced : Нет
Аудио
Идентификатор : 2
Формат : AC-3
Формат/Информация : Audio Coding 3
Расширение режима : CM (complete main)
Режим смешивания : Header stripping
Идентификатор кодека : A_AC3
Продолжительность : 24 м.
Вид битрейта : Постоянный
Битрейт : 192 Кбит/сек
Каналы : 2 канала
Расположение каналов : Front: L R
Частота : 48,0 КГц
Битовая глубина : 16 бит
Метод сжатия : С потерями
Размер потока : 33,1 Мбайт (13%)
Язык : Russian
Default : Да
Forced : Нет
Общее
Уникальный идентификатор : 174413662867913144577535094755540303216 (0x8336D97F90F9A70C9BBAF596448B7D70)
Полное имя : C:\Users\user\Desktop\[Pokemon_Alliance]_Galactik_Football_[TV-1]_[pobel]\[Pokemon_Alliance]_Galactik_Football_[TV-1]_Episode_02_[R5-Jetix]_[pobel].mkv
Формат : Matroska
Версия формата : Version 2
Размер файла : 260 Мбайт
Продолжительность : 24 м.
Общий поток : 1510 Кбит/сек
Дата кодирования : UTC 2012-03-26 02:07:33
Программа кодирования : mkvmerge v5.4.0 ('Piper') built on Mar 10 2012 13:34:39
Библиотека кодирования : libebml v1.2.3 + libmatroska v1.3.0
Видео
Идентификатор : 1
Формат : AVC
Формат/Информация : Advanced Video Codec
Профиль формата : High@L4.1
Параметр CABAC формата : Да
Параметр ReFrames формата : 3 кадра
Режим смешивания : Header stripping
Идентификатор кодека : V_MPEG4/ISO/AVC
Продолжительность : 24 м.
Битрейт : 1288 Кбит/сек
Ширина : 640 пикселей
Высота : 480 пикселей
Соотношение сторон : 4:3
Режим частоты кадров : Переменный
Частота кадров : 25,000 кадров/сек
Цветовое пространство : YUV
Субдискретизация насыщенности : 4:2:0
Битовая глубина : 8 бит
Тип развёртки : Прогрессивная
Бит/(Пиксели*Кадры) : 0.168
Размер потока : 222 Мбайт (85%)
Библиотека кодирования : x264 core 120 r2146M bcd41db
Настройки программы : cabac=1 / ref=3 / deblock=1:0:0 / analyse=0x3:0x133 / me=hex / subme=7 / psy=1 / psy_rd=1.00:0.20 / mixed_ref=1 / me_range=16 / chroma_me=1 / trellis=1 / 8x8dct=1 / cqm=0 / deadzone=21,11 / fast_pskip=1 / chroma_qp_offset=-3 / threads=8 / sliced_threads=0 / nr=0 / decimate=1 / interlaced=0 / bluray_compat=0 / constrained_intra=0 / bframes=3 / b_pyramid=1 / b_adapt=2 / b_bias=0 / direct=3 / weightb=1 / open_gop=0 / weightp=2 / keyint=250 / keyint_min=25 / scenecut=40 / intra_refresh=0 / rc_lookahead=40 / rc=crf / mbtree=1 / crf=18.0 / qcomp=0.60 / qpmin=10 / qpmax=51 / qpstep=4 / ip_ratio=1.40 / aq=1:1.00
Язык : French
Default : Да
Forced : Нет
Аудио
Идентификатор : 2
Формат : AC-3
Формат/Информация : Audio Coding 3
Расширение режима : CM (complete main)
Режим смешивания : Header stripping
Идентификатор кодека : A_AC3
Продолжительность : 24 м.
Вид битрейта : Постоянный
Битрейт : 192 Кбит/сек
Каналы : 2 канала
Расположение каналов : Front: L R
Частота : 48,0 КГц
Битовая глубина : 16 бит
Метод сжатия : С потерями
Размер потока : 33,1 Мбайт (13%)
Язык : Russian
Default : Да
Forced : Нет
Общее
Уникальный идентификатор : 198565041858033814187681969047861075955 (0x95623C6AA561FDAEA24E1C5B155E1FF3)
Полное имя : C:\Users\user\Desktop\[Pokemon_Alliance]_Galactik_Football_[TV-1]_[pobel]\[Pokemon_Alliance]_Galactik_Football_[TV-1]_Episode_03_[R5-Jetix]_[pobel].mkv
Формат : Matroska
Версия формата : Version 2
Размер файла : 239 Мбайт
Продолжительность : 24 м.
Общий поток : 1389 Кбит/сек
Дата кодирования : UTC 2012-03-26 02:26:02
Программа кодирования : mkvmerge v5.4.0 ('Piper') built on Mar 10 2012 13:34:39
Библиотека кодирования : libebml v1.2.3 + libmatroska v1.3.0
Видео
Идентификатор : 1
Формат : AVC
Формат/Информация : Advanced Video Codec
Профиль формата : High@L4.1
Параметр CABAC формата : Да
Параметр ReFrames формата : 3 кадра
Режим смешивания : Header stripping
Идентификатор кодека : V_MPEG4/ISO/AVC
Продолжительность : 24 м.
Битрейт : 1169 Кбит/сек
Ширина : 640 пикселей
Высота : 480 пикселей
Соотношение сторон : 4:3
Режим частоты кадров : Переменный
Частота кадров : 25,000 кадров/сек
Цветовое пространство : YUV
Субдискретизация насыщенности : 4:2:0
Битовая глубина : 8 бит
Тип развёртки : Прогрессивная
Бит/(Пиксели*Кадры) : 0.152
Размер потока : 201 Мбайт (84%)
Библиотека кодирования : x264 core 120 r2146M bcd41db
Настройки программы : cabac=1 / ref=3 / deblock=1:0:0 / analyse=0x3:0x133 / me=hex / subme=7 / psy=1 / psy_rd=1.00:0.20 / mixed_ref=1 / me_range=16 / chroma_me=1 / trellis=1 / 8x8dct=1 / cqm=0 / deadzone=21,11 / fast_pskip=1 / chroma_qp_offset=-3 / threads=8 / sliced_threads=0 / nr=0 / decimate=1 / interlaced=0 / bluray_compat=0 / constrained_intra=0 / bframes=3 / b_pyramid=1 / b_adapt=2 / b_bias=0 / direct=3 / weightb=1 / open_gop=0 / weightp=2 / keyint=250 / keyint_min=25 / scenecut=40 / intra_refresh=0 / rc_lookahead=40 / rc=crf / mbtree=1 / crf=18.0 / qcomp=0.60 / qpmin=10 / qpmax=51 / qpstep=4 / ip_ratio=1.40 / aq=1:1.00
Язык : French
Default : Да
Forced : Нет
Аудио
Идентификатор : 2
Формат : AC-3
Формат/Информация : Audio Coding 3
Расширение режима : CM (complete main)
Режим смешивания : Header stripping
Идентификатор кодека : A_AC3
Продолжительность : 24 м.
Вид битрейта : Постоянный
Битрейт : 192 Кбит/сек
Каналы : 2 канала
Расположение каналов : Front: L R
Частота : 48,0 КГц
Битовая глубина : 16 бит
Метод сжатия : С потерями
Размер потока : 33,1 Мбайт (14%)
Язык : Russian
Default : Да
Forced : Нет
Общее
Уникальный идентификатор : 201665876472817054878909057482674281327 (0x97B76F5DDD540609B206D3A36EEE1B6F)
Полное имя : C:\Users\user\Desktop\[Pokemon_Alliance]_Galactik_Football_[TV-1]_[pobel]\[Pokemon_Alliance]_Galactik_Football_[TV-1]_Episode_04_[R5-Jetix]_[pobel].mkv
Формат : Matroska
Версия формата : Version 2
Размер файла : 271 Мбайт
Продолжительность : 24 м.
Общий поток : 1570 Кбит/сек
Дата кодирования : UTC 2012-03-26 02:42:42
Программа кодирования : mkvmerge v5.4.0 ('Piper') built on Mar 10 2012 13:34:39
Библиотека кодирования : libebml v1.2.3 + libmatroska v1.3.0
Видео
Идентификатор : 1
Формат : AVC
Формат/Информация : Advanced Video Codec
Профиль формата : High@L4.1
Параметр CABAC формата : Да
Параметр ReFrames формата : 3 кадра
Режим смешивания : Header stripping
Идентификатор кодека : V_MPEG4/ISO/AVC
Продолжительность : 24 м.
Битрейт : 1346 Кбит/сек
Ширина : 640 пикселей
Высота : 480 пикселей
Соотношение сторон : 4:3
Режим частоты кадров : Переменный
Частота кадров : 25,000 кадров/сек
Цветовое пространство : YUV
Субдискретизация насыщенности : 4:2:0
Битовая глубина : 8 бит
Тип развёртки : Прогрессивная
Бит/(Пиксели*Кадры) : 0.175
Размер потока : 232 Мбайт (86%)
Библиотека кодирования : x264 core 120 r2146M bcd41db
Настройки программы : cabac=1 / ref=3 / deblock=1:0:0 / analyse=0x3:0x133 / me=hex / subme=7 / psy=1 / psy_rd=1.00:0.20 / mixed_ref=1 / me_range=16 / chroma_me=1 / trellis=1 / 8x8dct=1 / cqm=0 / deadzone=21,11 / fast_pskip=1 / chroma_qp_offset=-3 / threads=8 / sliced_threads=0 / nr=0 / decimate=1 / interlaced=0 / bluray_compat=0 / constrained_intra=0 / bframes=3 / b_pyramid=1 / b_adapt=2 / b_bias=0 / direct=3 / weightb=1 / open_gop=0 / weightp=2 / keyint=250 / keyint_min=25 / scenecut=40 / intra_refresh=0 / rc_lookahead=40 / rc=crf / mbtree=1 / crf=18.0 / qcomp=0.60 / qpmin=10 / qpmax=51 / qpstep=4 / ip_ratio=1.40 / aq=1:1.00
Язык : French
Default : Да
Forced : Нет
Аудио
Идентификатор : 2
Формат : AC-3
Формат/Информация : Audio Coding 3
Расширение режима : CM (complete main)
Режим смешивания : Header stripping
Идентификатор кодека : A_AC3
Продолжительность : 24 м.
Вид битрейта : Постоянный
Битрейт : 192 Кбит/сек
Каналы : 2 канала
Расположение каналов : Front: L R
Частота : 48,0 КГц
Битовая глубина : 16 бит
Метод сжатия : С потерями
Размер потока : 33,1 Мбайт (12%)
Язык : Russian
Default : Да
Forced : Нет
Общее
Уникальный идентификатор : 250279700495305403058815210639435506399 (0xBC4A1DF1756F06FA9C8E5FE1B03422DF)
Полное имя : C:\Users\user\Desktop\[Pokemon_Alliance]_Galactik_Football_[TV-1]_[pobel]\[Pokemon_Alliance]_Galactik_Football_[TV-1]_Episode_05_[R5-Jetix]_[pobel].mkv
Формат : Matroska
Версия формата : Version 2
Размер файла : 250 Мбайт
Продолжительность : 24 м.
Общий поток : 1443 Кбит/сек
Дата кодирования : UTC 2012-03-26 04:21:30
Программа кодирования : mkvmerge v5.4.0 ('Piper') built on Mar 10 2012 13:34:39
Библиотека кодирования : libebml v1.2.3 + libmatroska v1.3.0
Видео
Идентификатор : 1
Формат : AVC
Формат/Информация : Advanced Video Codec
Профиль формата : High@L4.1
Параметр CABAC формата : Да
Параметр ReFrames формата : 3 кадра
Режим смешивания : Header stripping
Идентификатор кодека : V_MPEG4/ISO/AVC
Продолжительность : 24 м.
Битрейт : 1222 Кбит/сек
Ширина : 640 пикселей
Высота : 480 пикселей
Соотношение сторон : 1,271
Соотношение сторон в оригинале : 1,273
Режим частоты кадров : Переменный
Частота кадров : 25,000 кадров/сек
Цветовое пространство : YUV
Субдискретизация насыщенности : 4:2:0
Битовая глубина : 8 бит
Тип развёртки : Прогрессивная
Бит/(Пиксели*Кадры) : 0.159
Размер потока : 211 Мбайт (85%)
Библиотека кодирования : x264 core 120 r2146M bcd41db
Настройки программы : cabac=1 / ref=3 / deblock=1:0:0 / analyse=0x3:0x133 / me=hex / subme=7 / psy=1 / psy_rd=1.00:0.20 / mixed_ref=1 / me_range=16 / chroma_me=1 / trellis=1 / 8x8dct=1 / cqm=0 / deadzone=21,11 / fast_pskip=1 / chroma_qp_offset=-3 / threads=8 / sliced_threads=0 / nr=0 / decimate=1 / interlaced=0 / bluray_compat=0 / constrained_intra=0 / bframes=3 / b_pyramid=1 / b_adapt=2 / b_bias=0 / direct=3 / weightb=1 / open_gop=0 / weightp=2 / keyint=250 / keyint_min=25 / scenecut=40 / intra_refresh=0 / rc_lookahead=40 / rc=crf / mbtree=1 / crf=18.0 / qcomp=0.60 / qpmin=10 / qpmax=51 / qpstep=4 / ip_ratio=1.40 / aq=1:1.00
Язык : French
Default : Да
Forced : Нет
Аудио
Идентификатор : 2
Формат : AC-3
Формат/Информация : Audio Coding 3
Расширение режима : CM (complete main)
Режим смешивания : Header stripping
Идентификатор кодека : A_AC3
Продолжительность : 24 м.
Вид битрейта : Постоянный
Битрейт : 192 Кбит/сек
Каналы : 2 канала
Расположение каналов : Front: L R
Частота : 48,0 КГц
Битовая глубина : 16 бит
Метод сжатия : С потерями
Размер потока : 33,2 Мбайт (13%)
Язык : Russian
Default : Да
Forced : Нет
Общее
Уникальный идентификатор : 234542529596420935642700108867330275787 (0xB0733F835D3817A49FABAE0A9C7A79CB)
Полное имя : C:\Users\user\Desktop\[Pokemon_Alliance]_Galactik_Football_[TV-1]_[pobel]\[Pokemon_Alliance]_Galactik_Football_[TV-1]_Episode_06_[R5-Jetix]_[pobel].mkv
Формат : Matroska
Версия формата : Version 2
Размер файла : 263 Мбайт
Продолжительность : 24 м.
Общий поток : 1526 Кбит/сек
Дата кодирования : UTC 2012-03-26 04:40:36
Программа кодирования : mkvmerge v5.4.0 ('Piper') built on Mar 10 2012 13:34:39
Библиотека кодирования : libebml v1.2.3 + libmatroska v1.3.0
Видео
Идентификатор : 1
Формат : AVC
Формат/Информация : Advanced Video Codec
Профиль формата : High@L4.1
Параметр CABAC формата : Да
Параметр ReFrames формата : 3 кадра
Режим смешивания : Header stripping
Идентификатор кодека : V_MPEG4/ISO/AVC
Продолжительность : 24 м.
Битрейт : 1303 Кбит/сек
Ширина : 640 пикселей
Высота : 480 пикселей
Соотношение сторон : 1,271
Соотношение сторон в оригинале : 1,273
Режим частоты кадров : Переменный
Частота кадров : 25,000 кадров/сек
Цветовое пространство : YUV
Субдискретизация насыщенности : 4:2:0
Битовая глубина : 8 бит
Тип развёртки : Прогрессивная
Бит/(Пиксели*Кадры) : 0.170
Размер потока : 224 Мбайт (85%)
Библиотека кодирования : x264 core 120 r2146M bcd41db
Настройки программы : cabac=1 / ref=3 / deblock=1:0:0 / analyse=0x3:0x133 / me=hex / subme=7 / psy=1 / psy_rd=1.00:0.20 / mixed_ref=1 / me_range=16 / chroma_me=1 / trellis=1 / 8x8dct=1 / cqm=0 / deadzone=21,11 / fast_pskip=1 / chroma_qp_offset=-3 / threads=8 / sliced_threads=0 / nr=0 / decimate=1 / interlaced=0 / bluray_compat=0 / constrained_intra=0 / bframes=3 / b_pyramid=1 / b_adapt=2 / b_bias=0 / direct=3 / weightb=1 / open_gop=0 / weightp=2 / keyint=250 / keyint_min=25 / scenecut=40 / intra_refresh=0 / rc_lookahead=40 / rc=crf / mbtree=1 / crf=18.0 / qcomp=0.60 / qpmin=10 / qpmax=51 / qpstep=4 / ip_ratio=1.40 / aq=1:1.00
Язык : French
Default : Да
Forced : Нет
Аудио
Идентификатор : 2
Формат : AC-3
Формат/Информация : Audio Coding 3
Расширение режима : CM (complete main)
Режим смешивания : Header stripping
Идентификатор кодека : A_AC3
Продолжительность : 24 м.
Вид битрейта : Постоянный
Битрейт : 192 Кбит/сек
Каналы : 2 канала
Расположение каналов : Front: L R
Частота : 48,0 КГц
Битовая глубина : 16 бит
Метод сжатия : С потерями
Размер потока : 33,0 Мбайт (13%)
Язык : Russian
Default : Да
Forced : Нет
Общее
Уникальный идентификатор : 215736910220390879425890623783418604906 (0xA24D6AE493A076E0AE2F8C7F31922D6A)
Полное имя : C:\Users\user\Desktop\[Pokemon_Alliance]_Galactik_Football_[TV-1]_[pobel]\[Pokemon_Alliance]_Galactik_Football_[TV-1]_Episode_07_[R5-Jetix]_[pobel].mkv
Формат : Matroska
Версия формата : Version 2
Размер файла : 289 Мбайт
Продолжительность : 24 м.
Общий поток : 1678 Кбит/сек
Дата кодирования : UTC 2012-03-26 09:07:15
Программа кодирования : mkvmerge v5.4.0 ('Piper') built on Mar 10 2012 13:34:39
Библиотека кодирования : libebml v1.2.3 + libmatroska v1.3.0
Видео
Идентификатор : 1
Формат : AVC
Формат/Информация : Advanced Video Codec
Профиль формата : High@L4.1
Параметр CABAC формата : Да
Параметр ReFrames формата : 3 кадра
Режим смешивания : Header stripping
Идентификатор кодека : V_MPEG4/ISO/AVC
Продолжительность : 24 м.
Битрейт : 1453 Кбит/сек
Ширина : 640 пикселей
Высота : 480 пикселей
Соотношение сторон : 1,271
Соотношение сторон в оригинале : 1,273
Режим частоты кадров : Переменный
Частота кадров : 25,000 кадров/сек
Цветовое пространство : YUV
Субдискретизация насыщенности : 4:2:0
Битовая глубина : 8 бит
Тип развёртки : Прогрессивная
Бит/(Пиксели*Кадры) : 0.189
Размер потока : 250 Мбайт (87%)
Библиотека кодирования : x264 core 120 r2146M bcd41db
Настройки программы : cabac=1 / ref=3 / deblock=1:0:0 / analyse=0x3:0x133 / me=hex / subme=7 / psy=1 / psy_rd=1.00:0.20 / mixed_ref=1 / me_range=16 / chroma_me=1 / trellis=1 / 8x8dct=1 / cqm=0 / deadzone=21,11 / fast_pskip=1 / chroma_qp_offset=-3 / threads=8 / sliced_threads=0 / nr=0 / decimate=1 / interlaced=0 / bluray_compat=0 / constrained_intra=0 / bframes=3 / b_pyramid=1 / b_adapt=2 / b_bias=0 / direct=3 / weightb=1 / open_gop=0 / weightp=2 / keyint=250 / keyint_min=25 / scenecut=40 / intra_refresh=0 / rc_lookahead=40 / rc=crf / mbtree=1 / crf=18.0 / qcomp=0.60 / qpmin=10 / qpmax=51 / qpstep=4 / ip_ratio=1.40 / aq=1:1.00
Язык : French
Default : Да
Forced : Нет
Аудио
Идентификатор : 2
Формат : AC-3
Формат/Информация : Audio Coding 3
Расширение режима : CM (complete main)
Режим смешивания : Header stripping
Идентификатор кодека : A_AC3
Продолжительность : 24 м.
Вид битрейта : Постоянный
Битрейт : 192 Кбит/сек
Каналы : 2 канала
Расположение каналов : Front: L R
Частота : 48,0 КГц
Битовая глубина : 16 бит
Метод сжатия : С потерями
Размер потока : 33,1 Мбайт (11%)
Язык : Russian
Default : Да
Forced : Нет
Общее
Уникальный идентификатор : 190899322634704795320119960008379879731 (0x8F9DDF475AE52C6EA7245BFD5E9C5133)
Полное имя : C:\Users\user\Desktop\[Pokemon_Alliance]_Galactik_Football_[TV-1]_[pobel]\[Pokemon_Alliance]_Galactik_Football_[TV-1]_Episode_08_[R5-Jetix]_[pobel].mkv
Формат : Matroska
Версия формата : Version 2
Размер файла : 276 Мбайт
Продолжительность : 24 м.
Общий поток : 1607 Кбит/сек
Дата кодирования : UTC 2012-03-26 09:43:01
Программа кодирования : mkvmerge v5.4.0 ('Piper') built on Mar 10 2012 13:34:39
Библиотека кодирования : libebml v1.2.3 + libmatroska v1.3.0
Видео
Идентификатор : 1
Формат : AVC
Формат/Информация : Advanced Video Codec
Профиль формата : High@L4.1
Параметр CABAC формата : Да
Параметр ReFrames формата : 3 кадра
Режим смешивания : Header stripping
Идентификатор кодека : V_MPEG4/ISO/AVC
Продолжительность : 24 м.
Битрейт : 1383 Кбит/сек
Ширина : 640 пикселей
Высота : 480 пикселей
Соотношение сторон : 1,271
Соотношение сторон в оригинале : 1,273
Режим частоты кадров : Переменный
Частота кадров : 25,000 кадров/сек
Цветовое пространство : YUV
Субдискретизация насыщенности : 4:2:0
Битовая глубина : 8 бит
Тип развёртки : Прогрессивная
Бит/(Пиксели*Кадры) : 0.180
Размер потока : 238 Мбайт (86%)
Библиотека кодирования : x264 core 120 r2146M bcd41db
Настройки программы : cabac=1 / ref=3 / deblock=1:0:0 / analyse=0x3:0x133 / me=hex / subme=7 / psy=1 / psy_rd=1.00:0.20 / mixed_ref=1 / me_range=16 / chroma_me=1 / trellis=1 / 8x8dct=1 / cqm=0 / deadzone=21,11 / fast_pskip=1 / chroma_qp_offset=-3 / threads=8 / sliced_threads=0 / nr=0 / decimate=1 / interlaced=0 / bluray_compat=0 / constrained_intra=0 / bframes=3 / b_pyramid=1 / b_adapt=2 / b_bias=0 / direct=3 / weightb=1 / open_gop=0 / weightp=2 / keyint=250 / keyint_min=25 / scenecut=40 / intra_refresh=0 / rc_lookahead=40 / rc=crf / mbtree=1 / crf=18.0 / qcomp=0.60 / qpmin=10 / qpmax=51 / qpstep=4 / ip_ratio=1.40 / aq=1:1.00
Язык : French
Default : Да
Forced : Нет
Аудио
Идентификатор : 2
Формат : AC-3
Формат/Информация : Audio Coding 3
Расширение режима : CM (complete main)
Режим смешивания : Header stripping
Идентификатор кодека : A_AC3
Продолжительность : 24 м.
Вид битрейта : Постоянный
Битрейт : 192 Кбит/сек
Каналы : 2 канала
Расположение каналов : Front: L R
Частота : 48,0 КГц
Битовая глубина : 16 бит
Метод сжатия : С потерями
Размер потока : 33,0 Мбайт (12%)
Язык : Russian
Default : Да
Forced : Нет
Общее
Уникальный идентификатор : 177389724486348792358645688584576382341 (0x857404AA29CECE7C83E23F23E00B3585)
Полное имя : C:\Users\user\Desktop\[Pokemon_Alliance]_Galactik_Football_[TV-1]_[pobel]\[Pokemon_Alliance]_Galactik_Football_[TV-1]_Episode_09_[R5-Jetix]_[pobel].mkv
Формат : Matroska
Версия формата : Version 2
Размер файла : 291 Мбайт
Продолжительность : 24 м.
Общий поток : 1691 Кбит/сек
Дата кодирования : UTC 2012-03-26 12:35:14
Программа кодирования : mkvmerge v5.4.0 ('Piper') built on Mar 10 2012 13:34:39
Библиотека кодирования : libebml v1.2.3 + libmatroska v1.3.0
Видео
Идентификатор : 1
Формат : AVC
Формат/Информация : Advanced Video Codec
Профиль формата : High@L4.1
Параметр CABAC формата : Да
Параметр ReFrames формата : 3 кадра
Режим смешивания : Header stripping
Идентификатор кодека : V_MPEG4/ISO/AVC
Продолжительность : 24 м.
Битрейт : 1465 Кбит/сек
Ширина : 640 пикселей
Высота : 480 пикселей
Соотношение сторон : 4:3
Режим частоты кадров : Переменный
Частота кадров : 25,000 кадров/сек
Цветовое пространство : YUV
Субдискретизация насыщенности : 4:2:0
Битовая глубина : 8 бит
Тип развёртки : Прогрессивная
Бит/(Пиксели*Кадры) : 0.191
Размер потока : 252 Мбайт (87%)
Библиотека кодирования : x264 core 120 r2146M bcd41db
Настройки программы : cabac=1 / ref=3 / deblock=1:0:0 / analyse=0x3:0x133 / me=hex / subme=7 / psy=1 / psy_rd=1.00:0.20 / mixed_ref=1 / me_range=16 / chroma_me=1 / trellis=1 / 8x8dct=1 / cqm=0 / deadzone=21,11 / fast_pskip=1 / chroma_qp_offset=-3 / threads=8 / sliced_threads=0 / nr=0 / decimate=1 / interlaced=0 / bluray_compat=0 / constrained_intra=0 / bframes=3 / b_pyramid=1 / b_adapt=2 / b_bias=0 / direct=3 / weightb=1 / open_gop=0 / weightp=2 / keyint=250 / keyint_min=25 / scenecut=40 / intra_refresh=0 / rc_lookahead=40 / rc=crf / mbtree=1 / crf=18.0 / qcomp=0.60 / qpmin=10 / qpmax=51 / qpstep=4 / ip_ratio=1.40 / aq=1:1.00
Язык : French
Default : Да
Forced : Нет
Аудио
Идентификатор : 2
Формат : AC-3
Формат/Информация : Audio Coding 3
Расширение режима : CM (complete main)
Режим смешивания : Header stripping
Идентификатор кодека : A_AC3
Продолжительность : 24 м.
Вид битрейта : Постоянный
Битрейт : 192 Кбит/сек
Каналы : 2 канала
Расположение каналов : Front: L R
Частота : 48,0 КГц
Битовая глубина : 16 бит
Метод сжатия : С потерями
Размер потока : 33,1 Мбайт (11%)
Язык : Russian
Default : Да
Forced : Нет
Общее
Уникальный идентификатор : 205475211486269529126274534045144526470 (0x9A951615562B564F90FC8653386F2E86)
Полное имя : C:\Users\user\Desktop\[Pokemon_Alliance]_Galactik_Football_[TV-1]_[pobel]\[Pokemon_Alliance]_Galactik_Football_[TV-1]_Episode_10_[R5-Jetix]_[pobel].mkv
Формат : Matroska
Версия формата : Version 2
Размер файла : 267 Мбайт
Продолжительность : 24 м.
Общий поток : 1552 Кбит/сек
Дата кодирования : UTC 2012-03-26 12:56:27
Программа кодирования : mkvmerge v5.4.0 ('Piper') built on Mar 10 2012 13:34:39
Библиотека кодирования : libebml v1.2.3 + libmatroska v1.3.0
Видео
Идентификатор : 1
Формат : AVC
Формат/Информация : Advanced Video Codec
Профиль формата : High@L4.1
Параметр CABAC формата : Да
Параметр ReFrames формата : 3 кадра
Режим смешивания : Header stripping
Идентификатор кодека : V_MPEG4/ISO/AVC
Продолжительность : 24 м.
Битрейт : 1329 Кбит/сек
Ширина : 640 пикселей
Высота : 480 пикселей
Соотношение сторон : 4:3
Режим частоты кадров : Переменный
Частота кадров : 25,000 кадров/сек
Цветовое пространство : YUV
Субдискретизация насыщенности : 4:2:0
Битовая глубина : 8 бит
Тип развёртки : Прогрессивная
Бит/(Пиксели*Кадры) : 0.173
Размер потока : 229 Мбайт (86%)
Библиотека кодирования : x264 core 120 r2146M bcd41db
Настройки программы : cabac=1 / ref=3 / deblock=1:0:0 / analyse=0x3:0x133 / me=hex / subme=7 / psy=1 / psy_rd=1.00:0.20 / mixed_ref=1 / me_range=16 / chroma_me=1 / trellis=1 / 8x8dct=1 / cqm=0 / deadzone=21,11 / fast_pskip=1 / chroma_qp_offset=-3 / threads=8 / sliced_threads=0 / nr=0 / decimate=1 / interlaced=0 / bluray_compat=0 / constrained_intra=0 / bframes=3 / b_pyramid=1 / b_adapt=2 / b_bias=0 / direct=3 / weightb=1 / open_gop=0 / weightp=2 / keyint=250 / keyint_min=25 / scenecut=40 / intra_refresh=0 / rc_lookahead=40 / rc=crf / mbtree=1 / crf=18.0 / qcomp=0.60 / qpmin=10 / qpmax=51 / qpstep=4 / ip_ratio=1.40 / aq=1:1.00
Язык : French
Default : Да
Forced : Нет
Аудио
Идентификатор : 2
Формат : AC-3
Формат/Информация : Audio Coding 3
Расширение режима : CM (complete main)
Режим смешивания : Header stripping
Идентификатор кодека : A_AC3
Продолжительность : 24 м.
Вид битрейта : Постоянный
Битрейт : 192 Кбит/сек
Каналы : 2 канала
Расположение каналов : Front: L R
Частота : 48,0 КГц
Битовая глубина : 16 бит
Метод сжатия : С потерями
Размер потока : 33,1 Мбайт (12%)
Язык : Russian
Default : Да
Forced : Нет
Общее
Уникальный идентификатор : 242132301783467390581332174358948708851 (0xB628FC2C4A5B1C8A967C9A79655581F3)
Полное имя : C:\Users\user\Desktop\[Pokemon_Alliance]_Galactik_Football_[TV-1]_[pobel]\[Pokemon_Alliance]_Galactik_Football_[TV-1]_Episode_11_[R5-Jetix]_[pobel].mkv
Формат : Matroska
Версия формата : Version 2
Размер файла : 249 Мбайт
Продолжительность : 24 м.
Общий поток : 1447 Кбит/сек
Дата кодирования : UTC 2012-03-26 13:14:45
Программа кодирования : mkvmerge v5.4.0 ('Piper') built on Mar 10 2012 13:34:39
Библиотека кодирования : libebml v1.2.3 + libmatroska v1.3.0
Видео
Идентификатор : 1
Формат : AVC
Формат/Информация : Advanced Video Codec
Профиль формата : High@L4.1
Параметр CABAC формата : Да
Параметр ReFrames формата : 3 кадра
Режим смешивания : Header stripping
Идентификатор кодека : V_MPEG4/ISO/AVC
Продолжительность : 24 м.
Битрейт : 1226 Кбит/сек
Ширина : 640 пикселей
Высота : 480 пикселей
Соотношение сторон : 4:3
Режим частоты кадров : Переменный
Частота кадров : 25,000 кадров/сек
Цветовое пространство : YUV
Субдискретизация насыщенности : 4:2:0
Битовая глубина : 8 бит
Тип развёртки : Прогрессивная
Бит/(Пиксели*Кадры) : 0.160
Размер потока : 211 Мбайт (85%)
Библиотека кодирования : x264 core 120 r2146M bcd41db
Настройки программы : cabac=1 / ref=3 / deblock=1:0:0 / analyse=0x3:0x133 / me=hex / subme=7 / psy=1 / psy_rd=1.00:0.20 / mixed_ref=1 / me_range=16 / chroma_me=1 / trellis=1 / 8x8dct=1 / cqm=0 / deadzone=21,11 / fast_pskip=1 / chroma_qp_offset=-3 / threads=8 / sliced_threads=0 / nr=0 / decimate=1 / interlaced=0 / bluray_compat=0 / constrained_intra=0 / bframes=3 / b_pyramid=1 / b_adapt=2 / b_bias=0 / direct=3 / weightb=1 / open_gop=0 / weightp=2 / keyint=250 / keyint_min=25 / scenecut=40 / intra_refresh=0 / rc_lookahead=40 / rc=crf / mbtree=1 / crf=18.0 / qcomp=0.60 / qpmin=10 / qpmax=51 / qpstep=4 / ip_ratio=1.40 / aq=1:1.00
Язык : French
Default : Да
Forced : Нет
Аудио
Идентификатор : 2
Формат : AC-3
Формат/Информация : Audio Coding 3
Расширение режима : CM (complete main)
Режим смешивания : Header stripping
Идентификатор кодека : A_AC3
Продолжительность : 24 м.
Вид битрейта : Постоянный
Битрейт : 192 Кбит/сек
Каналы : 2 канала
Расположение каналов : Front: L R
Частота : 48,0 КГц
Битовая глубина : 16 бит
Метод сжатия : С потерями
Размер потока : 33,1 Мбайт (13%)
Язык : Russian
Default : Да
Forced : Нет
Общее
Уникальный идентификатор : 242378842078208642283243741042080835781 (0xB658778C4AB22F1E8FB295FE0F3568C5)
Полное имя : C:\Users\user\Desktop\[Pokemon_Alliance]_Galactik_Football_[TV-1]_[pobel]\[Pokemon_Alliance]_Galactik_Football_[TV-1]_Episode_12_[R5-Jetix]_[pobel].mkv
Формат : Matroska
Версия формата : Version 2
Размер файла : 253 Мбайт
Продолжительность : 24 м.
Общий поток : 1462 Кбит/сек
Дата кодирования : UTC 2012-03-26 13:36:46
Программа кодирования : mkvmerge v5.4.0 ('Piper') built on Mar 10 2012 13:34:39
Библиотека кодирования : libebml v1.2.3 + libmatroska v1.3.0
Видео
Идентификатор : 1
Формат : AVC
Формат/Информация : Advanced Video Codec
Профиль формата : High@L4.1
Параметр CABAC формата : Да
Параметр ReFrames формата : 3 кадра
Режим смешивания : Header stripping
Идентификатор кодека : V_MPEG4/ISO/AVC
Продолжительность : 24 м.
Битрейт : 1241 Кбит/сек
Ширина : 640 пикселей
Высота : 480 пикселей
Соотношение сторон : 4:3
Режим частоты кадров : Переменный
Частота кадров : 25,000 кадров/сек
Цветовое пространство : YUV
Субдискретизация насыщенности : 4:2:0
Битовая глубина : 8 бит
Тип развёртки : Прогрессивная
Бит/(Пиксели*Кадры) : 0.162
Размер потока : 215 Мбайт (85%)
Библиотека кодирования : x264 core 120 r2146M bcd41db
Настройки программы : cabac=1 / ref=3 / deblock=1:0:0 / analyse=0x3:0x133 / me=hex / subme=7 / psy=1 / psy_rd=1.00:0.20 / mixed_ref=1 / me_range=16 / chroma_me=1 / trellis=1 / 8x8dct=1 / cqm=0 / deadzone=21,11 / fast_pskip=1 / chroma_qp_offset=-3 / threads=8 / sliced_threads=0 / nr=0 / decimate=1 / interlaced=0 / bluray_compat=0 / constrained_intra=0 / bframes=3 / b_pyramid=1 / b_adapt=2 / b_bias=0 / direct=3 / weightb=1 / open_gop=0 / weightp=2 / keyint=250 / keyint_min=25 / scenecut=40 / intra_refresh=0 / rc_lookahead=40 / rc=crf / mbtree=1 / crf=18.0 / qcomp=0.60 / qpmin=10 / qpmax=51 / qpstep=4 / ip_ratio=1.40 / aq=1:1.00
Язык : French
Default : Да
Forced : Нет
Аудио
Идентификатор : 2
Формат : AC-3
Формат/Информация : Audio Coding 3
Расширение режима : CM (complete main)
Режим смешивания : Header stripping
Идентификатор кодека : A_AC3
Продолжительность : 24 м.
Вид битрейта : Постоянный
Битрейт : 192 Кбит/сек
Каналы : 2 канала
Расположение каналов : Front: L R
Частота : 48,0 КГц
Битовая глубина : 16 бит
Метод сжатия : С потерями
Размер потока : 33,3 Мбайт (13%)
Язык : Russian
Default : Да
Forced : Нет
Общее
Уникальный идентификатор : 217414304064483670758441080959424360810 (0xA39078CB6599D13ABD431512BB85716A)
Полное имя : C:\Users\user\Desktop\[Pokemon_Alliance]_Galactik_Football_[TV-1]_[pobel]\[Pokemon_Alliance]_Galactik_Football_[TV-1]_Episode_13_[R5-Jetix]_[pobel].mkv
Формат : Matroska
Версия формата : Version 2
Размер файла : 264 Мбайт
Продолжительность : 24 м.
Общий поток : 1531 Кбит/сек
Дата кодирования : UTC 2012-03-26 13:57:52
Программа кодирования : mkvmerge v5.4.0 ('Piper') built on Mar 10 2012 13:34:39
Библиотека кодирования : libebml v1.2.3 + libmatroska v1.3.0
Видео
Идентификатор : 1
Формат : AVC
Формат/Информация : Advanced Video Codec
Профиль формата : High@L4.1
Параметр CABAC формата : Да
Параметр ReFrames формата : 3 кадра
Режим смешивания : Header stripping
Идентификатор кодека : V_MPEG4/ISO/AVC
Продолжительность : 24 м.
Битрейт : 1309 Кбит/сек
Ширина : 640 пикселей
Высота : 480 пикселей
Соотношение сторон : 1,271
Соотношение сторон в оригинале : 1,273
Режим частоты кадров : Переменный
Частота кадров : 25,000 кадров/сек
Цветовое пространство : YUV
Субдискретизация насыщенности : 4:2:0
Битовая глубина : 8 бит
Тип развёртки : Прогрессивная
Бит/(Пиксели*Кадры) : 0.170
Размер потока : 226 Мбайт (85%)
Библиотека кодирования : x264 core 120 r2146M bcd41db
Настройки программы : cabac=1 / ref=3 / deblock=1:0:0 / analyse=0x3:0x133 / me=hex / subme=7 / psy=1 / psy_rd=1.00:0.20 / mixed_ref=1 / me_range=16 / chroma_me=1 / trellis=1 / 8x8dct=1 / cqm=0 / deadzone=21,11 / fast_pskip=1 / chroma_qp_offset=-3 / threads=8 / sliced_threads=0 / nr=0 / decimate=1 / interlaced=0 / bluray_compat=0 / constrained_intra=0 / bframes=3 / b_pyramid=1 / b_adapt=2 / b_bias=0 / direct=3 / weightb=1 / open_gop=0 / weightp=2 / keyint=250 / keyint_min=25 / scenecut=40 / intra_refresh=0 / rc_lookahead=40 / rc=crf / mbtree=1 / crf=18.0 / qcomp=0.60 / qpmin=10 / qpmax=51 / qpstep=4 / ip_ratio=1.40 / aq=1:1.00
Язык : French
Default : Да
Forced : Нет
Аудио
Идентификатор : 2
Формат : AC-3
Формат/Информация : Audio Coding 3
Расширение режима : CM (complete main)
Режим смешивания : Header stripping
Идентификатор кодека : A_AC3
Продолжительность : 24 м.
Вид битрейта : Постоянный
Битрейт : 192 Кбит/сек
Каналы : 2 канала
Расположение каналов : Front: L R
Частота : 48,0 КГц
Битовая глубина : 16 бит
Метод сжатия : С потерями
Размер потока : 33,2 Мбайт (13%)
Язык : Russian
Default : Да
Forced : Нет
Общее
Уникальный идентификатор : 191234555668713332368667818084031205241 (0x8FDE6F8B1C185D7D9A889F8F39830F79)
Полное имя : C:\Users\user\Desktop\[Pokemon_Alliance]_Galactik_Football_[TV-1]_[pobel]\[Pokemon_Alliance]_Galactik_Football_[TV-1]_Episode_14_[R5-Jetix]_[pobel].mkv
Формат : Matroska
Версия формата : Version 2
Размер файла : 258 Мбайт
Продолжительность : 24 м.
Общий поток : 1496 Кбит/сек
Дата кодирования : UTC 2012-03-26 14:18:19
Программа кодирования : mkvmerge v5.4.0 ('Piper') built on Mar 10 2012 13:34:39
Библиотека кодирования : libebml v1.2.3 + libmatroska v1.3.0
Видео
Идентификатор : 1
Формат : AVC
Формат/Информация : Advanced Video Codec
Профиль формата : High@L4.1
Параметр CABAC формата : Да
Параметр ReFrames формата : 3 кадра
Режим смешивания : Header stripping
Идентификатор кодека : V_MPEG4/ISO/AVC
Продолжительность : 24 м.
Битрейт : 1274 Кбит/сек
Ширина : 640 пикселей
Высота : 480 пикселей
Соотношение сторон : 1,271
Соотношение сторон в оригинале : 1,273
Режим частоты кадров : Переменный
Частота кадров : 25,000 кадров/сек
Цветовое пространство : YUV
Субдискретизация насыщенности : 4:2:0
Битовая глубина : 8 бит
Тип развёртки : Прогрессивная
Бит/(Пиксели*Кадры) : 0.166
Размер потока : 219 Мбайт (85%)
Библиотека кодирования : x264 core 120 r2146M bcd41db
Настройки программы : cabac=1 / ref=3 / deblock=1:0:0 / analyse=0x3:0x133 / me=hex / subme=7 / psy=1 / psy_rd=1.00:0.20 / mixed_ref=1 / me_range=16 / chroma_me=1 / trellis=1 / 8x8dct=1 / cqm=0 / deadzone=21,11 / fast_pskip=1 / chroma_qp_offset=-3 / threads=8 / sliced_threads=0 / nr=0 / decimate=1 / interlaced=0 / bluray_compat=0 / constrained_intra=0 / bframes=3 / b_pyramid=1 / b_adapt=2 / b_bias=0 / direct=3 / weightb=1 / open_gop=0 / weightp=2 / keyint=250 / keyint_min=25 / scenecut=40 / intra_refresh=0 / rc_lookahead=40 / rc=crf / mbtree=1 / crf=18.0 / qcomp=0.60 / qpmin=10 / qpmax=51 / qpstep=4 / ip_ratio=1.40 / aq=1:1.00
Язык : French
Default : Да
Forced : Нет
Аудио
Идентификатор : 2
Формат : AC-3
Формат/Информация : Audio Coding 3
Расширение режима : CM (complete main)
Режим смешивания : Header stripping
Идентификатор кодека : A_AC3
Продолжительность : 24 м.
Вид битрейта : Постоянный
Битрейт : 192 Кбит/сек
Каналы : 2 канала
Расположение каналов : Front: L R
Частота : 48,0 КГц
Битовая глубина : 16 бит
Метод сжатия : С потерями
Размер потока : 33,1 Мбайт (13%)
Язык : Russian
Default : Да
Forced : Нет
Общее
Уникальный идентификатор : 188480861843566960041217659672145481233 (0x8DCC17F4A6EC4C8EBC753E65652CCE11)
Полное имя : C:\Users\user\Desktop\[Pokemon_Alliance]_Galactik_Football_[TV-1]_[pobel]\[Pokemon_Alliance]_Galactik_Football_[TV-1]_Episode_15_[R5-Jetix]_[pobel].mkv
Формат : Matroska
Версия формата : Version 2
Размер файла : 271 Мбайт
Продолжительность : 24 м.
Общий поток : 1573 Кбит/сек
Дата кодирования : UTC 2012-03-26 14:47:17
Программа кодирования : mkvmerge v5.4.0 ('Piper') built on Mar 10 2012 13:34:39
Библиотека кодирования : libebml v1.2.3 + libmatroska v1.3.0
Видео
Идентификатор : 1
Формат : AVC
Формат/Информация : Advanced Video Codec
Профиль формата : High@L4.1
Параметр CABAC формата : Да
Параметр ReFrames формата : 3 кадра
Режим смешивания : Header stripping
Идентификатор кодека : V_MPEG4/ISO/AVC
Продолжительность : 24 м.
Битрейт : 1349 Кбит/сек
Ширина : 640 пикселей
Высота : 480 пикселей
Соотношение сторон : 4:3
Соотношение сторон в оригинале : 4:3
Режим частоты кадров : Переменный
Частота кадров : 25,000 кадров/сек
Цветовое пространство : YUV
Субдискретизация насыщенности : 4:2:0
Битовая глубина : 8 бит
Тип развёртки : Прогрессивная
Бит/(Пиксели*Кадры) : 0.176
Размер потока : 233 Мбайт (86%)
Библиотека кодирования : x264 core 120 r2146M bcd41db
Настройки программы : cabac=1 / ref=3 / deblock=1:0:0 / analyse=0x3:0x133 / me=hex / subme=7 / psy=1 / psy_rd=1.00:0.20 / mixed_ref=1 / me_range=16 / chroma_me=1 / trellis=1 / 8x8dct=1 / cqm=0 / deadzone=21,11 / fast_pskip=1 / chroma_qp_offset=-3 / threads=8 / sliced_threads=0 / nr=0 / decimate=1 / interlaced=0 / bluray_compat=0 / constrained_intra=0 / bframes=3 / b_pyramid=1 / b_adapt=2 / b_bias=0 / direct=3 / weightb=1 / open_gop=0 / weightp=2 / keyint=250 / keyint_min=25 / scenecut=40 / intra_refresh=0 / rc_lookahead=40 / rc=crf / mbtree=1 / crf=18.0 / qcomp=0.60 / qpmin=10 / qpmax=51 / qpstep=4 / ip_ratio=1.40 / aq=1:1.00
Язык : French
Default : Да
Forced : Нет
Аудио
Идентификатор : 2
Формат : AC-3
Формат/Информация : Audio Coding 3
Расширение режима : CM (complete main)
Режим смешивания : Header stripping
Идентификатор кодека : A_AC3
Продолжительность : 24 м.
Вид битрейта : Постоянный
Битрейт : 192 Кбит/сек
Каналы : 2 канала
Расположение каналов : Front: L R
Частота : 48,0 КГц
Битовая глубина : 16 бит
Метод сжатия : С потерями
Размер потока : 33,1 Мбайт (12%)
Язык : Russian
Default : Да
Forced : Нет
Общее
Уникальный идентификатор : 224149448563499546850059534026175632292 (0xA8A19D0E60A2ECA4B00FC04D488753A4)
Полное имя : C:\Users\user\Desktop\[Pokemon_Alliance]_Galactik_Football_[TV-1]_[pobel]\[Pokemon_Alliance]_Galactik_Football_[TV-1]_Episode_16_[R5-Jetix]_[pobel].mkv
Формат : Matroska
Версия формата : Version 2
Размер файла : 249 Мбайт
Продолжительность : 24 м.
Общий поток : 1440 Кбит/сек
Дата кодирования : UTC 2012-03-26 15:19:18
Программа кодирования : mkvmerge v5.4.0 ('Piper') built on Mar 10 2012 13:34:39
Библиотека кодирования : libebml v1.2.3 + libmatroska v1.3.0
Видео
Идентификатор : 1
Формат : AVC
Формат/Информация : Advanced Video Codec
Профиль формата : High@L4.1
Параметр CABAC формата : Да
Параметр ReFrames формата : 3 кадра
Режим смешивания : Header stripping
Идентификатор кодека : V_MPEG4/ISO/AVC
Продолжительность : 24 м.
Битрейт : 1220 Кбит/сек
Ширина : 640 пикселей
Высота : 480 пикселей
Соотношение сторон : 4:3
Соотношение сторон в оригинале : 4:3
Режим частоты кадров : Переменный
Частота кадров : 25,000 кадров/сек
Цветовое пространство : YUV
Субдискретизация насыщенности : 4:2:0
Битовая глубина : 8 бит
Тип развёртки : Прогрессивная
Бит/(Пиксели*Кадры) : 0.159
Размер потока : 211 Мбайт (85%)
Библиотека кодирования : x264 core 120 r2146M bcd41db
Настройки программы : cabac=1 / ref=3 / deblock=1:0:0 / analyse=0x3:0x133 / me=hex / subme=7 / psy=1 / psy_rd=1.00:0.20 / mixed_ref=1 / me_range=16 / chroma_me=1 / trellis=1 / 8x8dct=1 / cqm=0 / deadzone=21,11 / fast_pskip=1 / chroma_qp_offset=-3 / threads=8 / sliced_threads=0 / nr=0 / decimate=1 / interlaced=0 / bluray_compat=0 / constrained_intra=0 / bframes=3 / b_pyramid=1 / b_adapt=2 / b_bias=0 / direct=3 / weightb=1 / open_gop=0 / weightp=2 / keyint=250 / keyint_min=25 / scenecut=40 / intra_refresh=0 / rc_lookahead=40 / rc=crf / mbtree=1 / crf=18.0 / qcomp=0.60 / qpmin=10 / qpmax=51 / qpstep=4 / ip_ratio=1.40 / aq=1:1.00
Язык : French
Default : Да
Forced : Нет
Аудио
Идентификатор : 2
Формат : AC-3
Формат/Информация : Audio Coding 3
Расширение режима : CM (complete main)
Режим смешивания : Header stripping
Идентификатор кодека : A_AC3
Продолжительность : 24 м.
Вид битрейта : Постоянный
Битрейт : 192 Кбит/сек
Каналы : 2 канала
Расположение каналов : Front: L R
Частота : 48,0 КГц
Битовая глубина : 16 бит
Метод сжатия : С потерями
Размер потока : 33,2 Мбайт (13%)
Язык : Russian
Default : Да
Forced : Нет
Общее
Уникальный идентификатор : 223005996233670431672860450006611461917 (0xA7C56480F00DB0B4ADF11D4F9AEF071D)
Полное имя : C:\Users\user\Desktop\[Pokemon_Alliance]_Galactik_Football_[TV-1]_[pobel]\[Pokemon_Alliance]_Galactik_Football_[TV-1]_Episode_17_[R5-Jetix]_[pobel].mkv
Формат : Matroska
Версия формата : Version 2
Размер файла : 263 Мбайт
Продолжительность : 24 м.
Общий поток : 1527 Кбит/сек
Дата кодирования : UTC 2012-03-26 15:35:07
Программа кодирования : mkvmerge v5.4.0 ('Piper') built on Mar 10 2012 13:34:39
Библиотека кодирования : libebml v1.2.3 + libmatroska v1.3.0
Видео
Идентификатор : 1
Формат : AVC
Формат/Информация : Advanced Video Codec
Профиль формата : High@L4.1
Параметр CABAC формата : Да
Параметр ReFrames формата : 3 кадра
Режим смешивания : Header stripping
Идентификатор кодека : V_MPEG4/ISO/AVC
Продолжительность : 24 м.
Битрейт : 1305 Кбит/сек
Ширина : 640 пикселей
Высота : 480 пикселей
Соотношение сторон : 1,371
Режим частоты кадров : Переменный
Частота кадров : 25,000 кадров/сек
Цветовое пространство : YUV
Субдискретизация насыщенности : 4:2:0
Битовая глубина : 8 бит
Тип развёртки : Прогрессивная
Бит/(Пиксели*Кадры) : 0.170
Размер потока : 225 Мбайт (85%)
Библиотека кодирования : x264 core 120 r2146M bcd41db
Настройки программы : cabac=1 / ref=3 / deblock=1:0:0 / analyse=0x3:0x133 / me=hex / subme=7 / psy=1 / psy_rd=1.00:0.20 / mixed_ref=1 / me_range=16 / chroma_me=1 / trellis=1 / 8x8dct=1 / cqm=0 / deadzone=21,11 / fast_pskip=1 / chroma_qp_offset=-3 / threads=8 / sliced_threads=0 / nr=0 / decimate=1 / interlaced=0 / bluray_compat=0 / constrained_intra=0 / bframes=3 / b_pyramid=1 / b_adapt=2 / b_bias=0 / direct=3 / weightb=1 / open_gop=0 / weightp=2 / keyint=250 / keyint_min=25 / scenecut=40 / intra_refresh=0 / rc_lookahead=40 / rc=crf / mbtree=1 / crf=18.0 / qcomp=0.60 / qpmin=10 / qpmax=51 / qpstep=4 / ip_ratio=1.40 / aq=1:1.00
Язык : French
Default : Да
Forced : Нет
Аудио
Идентификатор : 2
Формат : AC-3
Формат/Информация : Audio Coding 3
Расширение режима : CM (complete main)
Режим смешивания : Header stripping
Идентификатор кодека : A_AC3
Продолжительность : 24 м.
Вид битрейта : Постоянный
Битрейт : 192 Кбит/сек
Каналы : 2 канала
Расположение каналов : Front: L R
Частота : 48,0 КГц
Битовая глубина : 16 бит
Метод сжатия : С потерями
Размер потока : 33,1 Мбайт (13%)
Язык : Russian
Default : Да
Forced : Нет
Общее
Уникальный идентификатор : 220254910241777777657526487370518299586 (0xA5B38D7DF695DEF89893390A36BD03C2)
Полное имя : C:\Users\user\Desktop\[Pokemon_Alliance]_Galactik_Football_[TV-1]_[pobel]\[Pokemon_Alliance]_Galactik_Football_[TV-1]_Episode_18_[R5-Jetix]_[pobel].mkv
Формат : Matroska
Версия формата : Version 2
Размер файла : 227 Мбайт
Продолжительность : 24 м.
Общий поток : 1321 Кбит/сек
Дата кодирования : UTC 2012-03-27 00:41:18
Программа кодирования : mkvmerge v5.4.0 ('Piper') built on Mar 10 2012 13:34:39
Библиотека кодирования : libebml v1.2.3 + libmatroska v1.3.0
Видео
Идентификатор : 1
Формат : AVC
Формат/Информация : Advanced Video Codec
Профиль формата : High@L4.1
Параметр CABAC формата : Да
Параметр ReFrames формата : 3 кадра
Режим смешивания : Header stripping
Идентификатор кодека : V_MPEG4/ISO/AVC
Продолжительность : 24 м.
Битрейт : 1103 Кбит/сек
Ширина : 640 пикселей
Высота : 480 пикселей
Соотношение сторон : 1,371
Режим частоты кадров : Переменный
Частота кадров : 25,000 кадров/сек
Цветовое пространство : YUV
Субдискретизация насыщенности : 4:2:0
Битовая глубина : 8 бит
Тип развёртки : Прогрессивная
Бит/(Пиксели*Кадры) : 0.144
Размер потока : 190 Мбайт (83%)
Библиотека кодирования : x264 core 120 r2146M bcd41db
Настройки программы : cabac=1 / ref=3 / deblock=1:0:0 / analyse=0x3:0x133 / me=hex / subme=7 / psy=1 / psy_rd=1.00:0.20 / mixed_ref=1 / me_range=16 / chroma_me=1 / trellis=1 / 8x8dct=1 / cqm=0 / deadzone=21,11 / fast_pskip=1 / chroma_qp_offset=-3 / threads=8 / sliced_threads=0 / nr=0 / decimate=1 / interlaced=0 / bluray_compat=0 / constrained_intra=0 / bframes=3 / b_pyramid=1 / b_adapt=2 / b_bias=0 / direct=3 / weightb=1 / open_gop=0 / weightp=2 / keyint=250 / keyint_min=25 / scenecut=40 / intra_refresh=0 / rc_lookahead=40 / rc=crf / mbtree=1 / crf=18.0 / qcomp=0.60 / qpmin=10 / qpmax=51 / qpstep=4 / ip_ratio=1.40 / aq=1:1.00
Язык : Russian
Default : Да
Forced : Нет
Аудио
Идентификатор : 2
Формат : AC-3
Формат/Информация : Audio Coding 3
Расширение режима : CM (complete main)
Режим смешивания : Header stripping
Идентификатор кодека : A_AC3
Продолжительность : 24 м.
Вид битрейта : Постоянный
Битрейт : 192 Кбит/сек
Каналы : 2 канала
Расположение каналов : Front: L R
Частота : 48,0 КГц
Битовая глубина : 16 бит
Метод сжатия : С потерями
Размер потока : 33,0 Мбайт (15%)
Default : Да
Forced : Нет
Общее
Уникальный идентификатор : 214633042641068461968709085608561155969 (0xA178D204EE471E85B2379565A9E11F81)
Полное имя : C:\Users\user\Desktop\[Pokemon_Alliance]_Galactik_Football_[TV-1]_[pobel]\[Pokemon_Alliance]_Galactik_Football_[TV-1]_Episode_19_[R5-Jetix]_[pobel].mkv
Формат : Matroska
Версия формата : Version 2
Размер файла : 254 Мбайт
Продолжительность : 24 м.
Общий поток : 1470 Кбит/сек
Дата кодирования : UTC 2012-03-27 00:54:53
Программа кодирования : mkvmerge v5.4.0 ('Piper') built on Mar 10 2012 13:34:39
Библиотека кодирования : libebml v1.2.3 + libmatroska v1.3.0
Видео
Идентификатор : 1
Формат : AVC
Формат/Информация : Advanced Video Codec
Профиль формата : High@L4.1
Параметр CABAC формата : Да
Параметр ReFrames формата : 3 кадра
Режим смешивания : Header stripping
Идентификатор кодека : V_MPEG4/ISO/AVC
Продолжительность : 24 м.
Битрейт : 1249 Кбит/сек
Ширина : 640 пикселей
Высота : 480 пикселей
Соотношение сторон : 1,371
Режим частоты кадров : Переменный
Частота кадров : 25,000 кадров/сек
Цветовое пространство : YUV
Субдискретизация насыщенности : 4:2:0
Битовая глубина : 8 бит
Тип развёртки : Прогрессивная
Бит/(Пиксели*Кадры) : 0.163
Размер потока : 215 Мбайт (85%)
Библиотека кодирования : x264 core 120 r2146M bcd41db
Настройки программы : cabac=1 / ref=3 / deblock=1:0:0 / analyse=0x3:0x133 / me=hex / subme=7 / psy=1 / psy_rd=1.00:0.20 / mixed_ref=1 / me_range=16 / chroma_me=1 / trellis=1 / 8x8dct=1 / cqm=0 / deadzone=21,11 / fast_pskip=1 / chroma_qp_offset=-3 / threads=8 / sliced_threads=0 / nr=0 / decimate=1 / interlaced=0 / bluray_compat=0 / constrained_intra=0 / bframes=3 / b_pyramid=1 / b_adapt=2 / b_bias=0 / direct=3 / weightb=1 / open_gop=0 / weightp=2 / keyint=250 / keyint_min=25 / scenecut=40 / intra_refresh=0 / rc_lookahead=40 / rc=crf / mbtree=1 / crf=18.0 / qcomp=0.60 / qpmin=10 / qpmax=51 / qpstep=4 / ip_ratio=1.40 / aq=1:1.00
Язык : French
Default : Да
Forced : Нет
Аудио
Идентификатор : 2
Формат : AC-3
Формат/Информация : Audio Coding 3
Расширение режима : CM (complete main)
Режим смешивания : Header stripping
Идентификатор кодека : A_AC3
Продолжительность : 24 м.
Вид битрейта : Постоянный
Битрейт : 192 Кбит/сек
Каналы : 2 канала
Расположение каналов : Front: L R
Частота : 48,0 КГц
Битовая глубина : 16 бит
Метод сжатия : С потерями
Размер потока : 33,1 Мбайт (13%)
Язык : Russian
Default : Да
Forced : Нет
Общее
Уникальный идентификатор : 249293792045176697308697380935162893571 (0xBB8C3CE756FC5BB9B791EBEFFF739503)
Полное имя : C:\Users\user\Desktop\[Pokemon_Alliance]_Galactik_Football_[TV-1]_[pobel]\[Pokemon_Alliance]_Galactik_Football_[TV-1]_Episode_20_[R5-Jetix]_[pobel].mkv
Формат : Matroska
Версия формата : Version 2
Размер файла : 244 Мбайт
Продолжительность : 24 м.
Общий поток : 1413 Кбит/сек
Дата кодирования : UTC 2012-03-27 01:11:23
Программа кодирования : mkvmerge v5.4.0 ('Piper') built on Mar 10 2012 13:34:39
Библиотека кодирования : libebml v1.2.3 + libmatroska v1.3.0
Видео
Идентификатор : 1
Формат : AVC
Формат/Информация : Advanced Video Codec
Профиль формата : High@L4.1
Параметр CABAC формата : Да
Параметр ReFrames формата : 3 кадра
Режим смешивания : Header stripping
Идентификатор кодека : V_MPEG4/ISO/AVC
Продолжительность : 24 м.
Битрейт : 1192 Кбит/сек
Ширина : 640 пикселей
Высота : 480 пикселей
Соотношение сторон : 1,371
Режим частоты кадров : Переменный
Частота кадров : 25,000 кадров/сек
Цветовое пространство : YUV
Субдискретизация насыщенности : 4:2:0
Битовая глубина : 8 бит
Тип развёртки : Прогрессивная
Бит/(Пиксели*Кадры) : 0.155
Размер потока : 206 Мбайт (84%)
Библиотека кодирования : x264 core 120 r2146M bcd41db
Настройки программы : cabac=1 / ref=3 / deblock=1:0:0 / analyse=0x3:0x133 / me=hex / subme=7 / psy=1 / psy_rd=1.00:0.20 / mixed_ref=1 / me_range=16 / chroma_me=1 / trellis=1 / 8x8dct=1 / cqm=0 / deadzone=21,11 / fast_pskip=1 / chroma_qp_offset=-3 / threads=8 / sliced_threads=0 / nr=0 / decimate=1 / interlaced=0 / bluray_compat=0 / constrained_intra=0 / bframes=3 / b_pyramid=1 / b_adapt=2 / b_bias=0 / direct=3 / weightb=1 / open_gop=0 / weightp=2 / keyint=250 / keyint_min=25 / scenecut=40 / intra_refresh=0 / rc_lookahead=40 / rc=crf / mbtree=1 / crf=18.0 / qcomp=0.60 / qpmin=10 / qpmax=51 / qpstep=4 / ip_ratio=1.40 / aq=1:1.00
Язык : French
Default : Да
Forced : Нет
Аудио
Идентификатор : 2
Формат : AC-3
Формат/Информация : Audio Coding 3
Расширение режима : CM (complete main)
Режим смешивания : Header stripping
Идентификатор кодека : A_AC3
Продолжительность : 24 м.
Вид битрейта : Постоянный
Битрейт : 192 Кбит/сек
Каналы : 2 канала
Расположение каналов : Front: L R
Частота : 48,0 КГц
Битовая глубина : 16 бит
Метод сжатия : С потерями
Размер потока : 33,2 Мбайт (14%)
Язык : Russian
Default : Да
Forced : Нет
Общее
Уникальный идентификатор : 234527246772871810563155793362493767620 (0xB0704E0303072FEEB25F7FE24BF9FFC4)
Полное имя : C:\Users\user\Desktop\[Pokemon_Alliance]_Galactik_Football_[TV-1]_[pobel]\[Pokemon_Alliance]_Galactik_Football_[TV-1]_Episode_21_[R5-Jetix]_[pobel].mkv
Формат : Matroska
Версия формата : Version 2
Размер файла : 287 Мбайт
Продолжительность : 24 м.
Общий поток : 1664 Кбит/сек
Дата кодирования : UTC 2012-03-27 01:33:51
Программа кодирования : mkvmerge v5.4.0 ('Piper') built on Mar 10 2012 13:34:39
Библиотека кодирования : libebml v1.2.3 + libmatroska v1.3.0
Видео
Идентификатор : 1
Формат : AVC
Формат/Информация : Advanced Video Codec
Профиль формата : High@L4.1
Параметр CABAC формата : Да
Параметр ReFrames формата : 3 кадра
Режим смешивания : Header stripping
Идентификатор кодека : V_MPEG4/ISO/AVC
Продолжительность : 24 м.
Битрейт : 1439 Кбит/сек
Ширина : 640 пикселей
Высота : 480 пикселей
Соотношение сторон : 1,371
Режим частоты кадров : Переменный
Частота кадров : 25,000 кадров/сек
Цветовое пространство : YUV
Субдискретизация насыщенности : 4:2:0
Битовая глубина : 8 бит
Тип развёртки : Прогрессивная
Бит/(Пиксели*Кадры) : 0.187
Размер потока : 248 Мбайт (86%)
Библиотека кодирования : x264 core 120 r2146M bcd41db
Настройки программы : cabac=1 / ref=3 / deblock=1:0:0 / analyse=0x3:0x133 / me=hex / subme=7 / psy=1 / psy_rd=1.00:0.20 / mixed_ref=1 / me_range=16 / chroma_me=1 / trellis=1 / 8x8dct=1 / cqm=0 / deadzone=21,11 / fast_pskip=1 / chroma_qp_offset=-3 / threads=8 / sliced_threads=0 / nr=0 / decimate=1 / interlaced=0 / bluray_compat=0 / constrained_intra=0 / bframes=3 / b_pyramid=1 / b_adapt=2 / b_bias=0 / direct=3 / weightb=1 / open_gop=0 / weightp=2 / keyint=250 / keyint_min=25 / scenecut=40 / intra_refresh=0 / rc_lookahead=40 / rc=crf / mbtree=1 / crf=18.0 / qcomp=0.60 / qpmin=10 / qpmax=51 / qpstep=4 / ip_ratio=1.40 / aq=1:1.00
Язык : French
Default : Да
Forced : Нет
Аудио
Идентификатор : 2
Формат : AC-3
Формат/Информация : Audio Coding 3
Расширение режима : CM (complete main)
Режим смешивания : Header stripping
Идентификатор кодека : A_AC3
Продолжительность : 24 м.
Вид битрейта : Постоянный
Битрейт : 192 Кбит/сек
Каналы : 2 канала
Расположение каналов : Front: L R
Частота : 48,0 КГц
Битовая глубина : 16 бит
Метод сжатия : С потерями
Размер потока : 33,1 Мбайт (12%)
Язык : Russian
Default : Да
Forced : Нет
Общее
Уникальный идентификатор : 231841298155433052915761764863936862782 (0xAE6B028549C43CE69E4A763261409A3E)
Полное имя : C:\Users\user\Desktop\[Pokemon_Alliance]_Galactik_Football_[TV-1]_[pobel]\[Pokemon_Alliance]_Galactik_Football_[TV-1]_Episode_22_[R5-Jetix]_[pobel].mkv
Формат : Matroska
Версия формата : Version 2
Размер файла : 260 Мбайт
Продолжительность : 24 м.
Общий поток : 1506 Кбит/сек
Дата кодирования : UTC 2012-03-27 02:08:44
Программа кодирования : mkvmerge v5.4.0 ('Piper') built on Mar 10 2012 13:34:39
Библиотека кодирования : libebml v1.2.3 + libmatroska v1.3.0
Видео
Идентификатор : 1
Формат : AVC
Формат/Информация : Advanced Video Codec
Профиль формата : High@L4.1
Параметр CABAC формата : Да
Параметр ReFrames формата : 3 кадра
Режим смешивания : Header stripping
Идентификатор кодека : V_MPEG4/ISO/AVC
Продолжительность : 24 м.
Битрейт : 1284 Кбит/сек
Ширина : 640 пикселей
Высота : 480 пикселей
Соотношение сторон : 1,371
Режим частоты кадров : Переменный
Частота кадров : 25,000 кадров/сек
Цветовое пространство : YUV
Субдискретизация насыщенности : 4:2:0
Битовая глубина : 8 бит
Тип развёртки : Прогрессивная
Бит/(Пиксели*Кадры) : 0.167
Размер потока : 221 Мбайт (85%)
Библиотека кодирования : x264 core 120 r2146M bcd41db
Настройки программы : cabac=1 / ref=3 / deblock=1:0:0 / analyse=0x3:0x133 / me=hex / subme=7 / psy=1 / psy_rd=1.00:0.20 / mixed_ref=1 / me_range=16 / chroma_me=1 / trellis=1 / 8x8dct=1 / cqm=0 / deadzone=21,11 / fast_pskip=1 / chroma_qp_offset=-3 / threads=8 / sliced_threads=0 / nr=0 / decimate=1 / interlaced=0 / bluray_compat=0 / constrained_intra=0 / bframes=3 / b_pyramid=1 / b_adapt=2 / b_bias=0 / direct=3 / weightb=1 / open_gop=0 / weightp=2 / keyint=250 / keyint_min=25 / scenecut=40 / intra_refresh=0 / rc_lookahead=40 / rc=crf / mbtree=1 / crf=18.0 / qcomp=0.60 / qpmin=10 / qpmax=51 / qpstep=4 / ip_ratio=1.40 / aq=1:1.00
Язык : French
Default : Да
Forced : Нет
Аудио
Идентификатор : 2
Формат : AC-3
Формат/Информация : Audio Coding 3
Расширение режима : CM (complete main)
Режим смешивания : Header stripping
Идентификатор кодека : A_AC3
Продолжительность : 24 м.
Вид битрейта : Постоянный
Битрейт : 192 Кбит/сек
Каналы : 2 канала
Расположение каналов : Front: L R
Частота : 48,0 КГц
Битовая глубина : 16 бит
Метод сжатия : С потерями
Размер потока : 33,1 Мбайт (13%)
Язык : Russian
Default : Да
Forced : Нет
Общее
Уникальный идентификатор : 241349928680764577392978006289960643074 (0xB5924E336D1862B999E3846BD0F3AA02)
Полное имя : C:\Users\user\Desktop\[Pokemon_Alliance]_Galactik_Football_[TV-1]_[pobel]\[Pokemon_Alliance]_Galactik_Football_[TV-1]_Episode_23_[R5-Jetix]_[pobel].mkv
Формат : Matroska
Версия формата : Version 2
Размер файла : 272 Мбайт
Продолжительность : 24 м.
Общий поток : 1571 Кбит/сек
Дата кодирования : UTC 2012-03-27 02:34:53
Программа кодирования : mkvmerge v5.4.0 ('Piper') built on Mar 10 2012 13:34:39
Библиотека кодирования : libebml v1.2.3 + libmatroska v1.3.0
Видео
Идентификатор : 1
Формат : AVC
Формат/Информация : Advanced Video Codec
Профиль формата : High@L4.1
Параметр CABAC формата : Да
Параметр ReFrames формата : 3 кадра
Режим смешивания : Header stripping
Идентификатор кодека : V_MPEG4/ISO/AVC
Продолжительность : 24 м.
Битрейт : 1348 Кбит/сек
Ширина : 640 пикселей
Высота : 480 пикселей
Соотношение сторон : 1,371
Режим частоты кадров : Переменный
Частота кадров : 25,000 кадров/сек
Цветовое пространство : YUV
Субдискретизация насыщенности : 4:2:0
Битовая глубина : 8 бит
Тип развёртки : Прогрессивная
Бит/(Пиксели*Кадры) : 0.176
Размер потока : 233 Мбайт (86%)
Библиотека кодирования : x264 core 120 r2146M bcd41db
Настройки программы : cabac=1 / ref=3 / deblock=1:0:0 / analyse=0x3:0x133 / me=hex / subme=7 / psy=1 / psy_rd=1.00:0.20 / mixed_ref=1 / me_range=16 / chroma_me=1 / trellis=1 / 8x8dct=1 / cqm=0 / deadzone=21,11 / fast_pskip=1 / chroma_qp_offset=-3 / threads=8 / sliced_threads=0 / nr=0 / decimate=1 / interlaced=0 / bluray_compat=0 / constrained_intra=0 / bframes=3 / b_pyramid=1 / b_adapt=2 / b_bias=0 / direct=3 / weightb=1 / open_gop=0 / weightp=2 / keyint=250 / keyint_min=25 / scenecut=40 / intra_refresh=0 / rc_lookahead=40 / rc=crf / mbtree=1 / crf=18.0 / qcomp=0.60 / qpmin=10 / qpmax=51 / qpstep=4 / ip_ratio=1.40 / aq=1:1.00
Язык : French
Default : Да
Forced : Нет
Аудио
Идентификатор : 2
Формат : AC-3
Формат/Информация : Audio Coding 3
Расширение режима : CM (complete main)
Режим смешивания : Header stripping
Идентификатор кодека : A_AC3
Продолжительность : 24 м.
Вид битрейта : Постоянный
Битрейт : 192 Кбит/сек
Каналы : 2 канала
Расположение каналов : Front: L R
Частота : 48,0 КГц
Битовая глубина : 16 бит
Метод сжатия : С потерями
Размер потока : 33,2 Мбайт (12%)
Язык : Russian
Default : Да
Forced : Нет
Общее
Уникальный идентификатор : 216033423462520510045826312290325835203 (0xA286861FD9A756208E07B4DFD1BD2DC3)
Полное имя : C:\Users\user\Desktop\[Pokemon_Alliance]_Galactik_Football_[TV-1]_[pobel]\[Pokemon_Alliance]_Galactik_Football_[TV-1]_Episode_24_[R5-Jetix]_[pobel].mkv
Формат : Matroska
Версия формата : Version 2
Размер файла : 251 Мбайт
Продолжительность : 24 м.
Общий поток : 1457 Кбит/сек
Дата кодирования : UTC 2012-03-27 03:09:29
Программа кодирования : mkvmerge v5.4.0 ('Piper') built on Mar 10 2012 13:34:39
Библиотека кодирования : libebml v1.2.3 + libmatroska v1.3.0
Видео
Идентификатор : 1
Формат : AVC
Формат/Информация : Advanced Video Codec
Профиль формата : High@L4.1
Параметр CABAC формата : Да
Параметр ReFrames формата : 3 кадра
Режим смешивания : Header stripping
Идентификатор кодека : V_MPEG4/ISO/AVC
Продолжительность : 24 м.
Битрейт : 1236 Кбит/сек
Ширина : 640 пикселей
Высота : 480 пикселей
Соотношение сторон : 1,371
Режим частоты кадров : Переменный
Частота кадров : 25,000 кадров/сек
Цветовое пространство : YUV
Субдискретизация насыщенности : 4:2:0
Битовая глубина : 8 бит
Тип развёртки : Прогрессивная
Бит/(Пиксели*Кадры) : 0.161
Размер потока : 213 Мбайт (85%)
Библиотека кодирования : x264 core 120 r2146M bcd41db
Настройки программы : cabac=1 / ref=3 / deblock=1:0:0 / analyse=0x3:0x133 / me=hex / subme=7 / psy=1 / psy_rd=1.00:0.20 / mixed_ref=1 / me_range=16 / chroma_me=1 / trellis=1 / 8x8dct=1 / cqm=0 / deadzone=21,11 / fast_pskip=1 / chroma_qp_offset=-3 / threads=8 / sliced_threads=0 / nr=0 / decimate=1 / interlaced=0 / bluray_compat=0 / constrained_intra=0 / bframes=3 / b_pyramid=1 / b_adapt=2 / b_bias=0 / direct=3 / weightb=1 / open_gop=0 / weightp=2 / keyint=250 / keyint_min=25 / scenecut=40 / intra_refresh=0 / rc_lookahead=40 / rc=crf / mbtree=1 / crf=18.0 / qcomp=0.60 / qpmin=10 / qpmax=51 / qpstep=4 / ip_ratio=1.40 / aq=1:1.00
Язык : French
Default : Да
Forced : Нет
Аудио
Идентификатор : 2
Формат : AC-3
Формат/Информация : Audio Coding 3
Расширение режима : CM (complete main)
Режим смешивания : Header stripping
Идентификатор кодека : A_AC3
Продолжительность : 24 м.
Вид битрейта : Постоянный
Битрейт : 192 Кбит/сек
Каналы : 2 канала
Расположение каналов : Front: L R
Частота : 48,0 КГц
Битовая глубина : 16 бит
Метод сжатия : С потерями
Размер потока : 33,1 Мбайт (13%)
Язык : Russian
Default : Да
Forced : Нет
Общее
Уникальный идентификатор : 238567544590578208363874037164222643055 (0xB37A7012E9CA39EFA61BC860F4C6FB6F)
Полное имя : C:\Users\user\Desktop\[Pokemon_Alliance]_Galactik_Football_[TV-1]_[pobel]\[Pokemon_Alliance]_Galactik_Football_[TV-1]_Episode_25_[R5-Jetix]_[pobel].mkv
Формат : Matroska
Версия формата : Version 2
Размер файла : 280 Мбайт
Продолжительность : 24 м.
Общий поток : 1622 Кбит/сек
Дата кодирования : UTC 2012-03-27 03:53:16
Программа кодирования : mkvmerge v5.4.0 ('Piper') built on Mar 10 2012 13:34:39
Библиотека кодирования : libebml v1.2.3 + libmatroska v1.3.0
Видео
Идентификатор : 1
Формат : AVC
Формат/Информация : Advanced Video Codec
Профиль формата : High@L4.1
Параметр CABAC формата : Да
Параметр ReFrames формата : 3 кадра
Режим смешивания : Header stripping
Идентификатор кодека : V_MPEG4/ISO/AVC
Продолжительность : 24 м.
Битрейт : 1398 Кбит/сек
Ширина : 640 пикселей
Высота : 480 пикселей
Соотношение сторон : 4:3
Соотношение сторон в оригинале : 4:3
Режим частоты кадров : Переменный
Частота кадров : 25,000 кадров/сек
Цветовое пространство : YUV
Субдискретизация насыщенности : 4:2:0
Битовая глубина : 8 бит
Тип развёртки : Прогрессивная
Бит/(Пиксели*Кадры) : 0.182
Размер потока : 241 Мбайт (86%)
Библиотека кодирования : x264 core 120 r2146M bcd41db
Настройки программы : cabac=1 / ref=3 / deblock=1:0:0 / analyse=0x3:0x133 / me=hex / subme=7 / psy=1 / psy_rd=1.00:0.20 / mixed_ref=1 / me_range=16 / chroma_me=1 / trellis=1 / 8x8dct=1 / cqm=0 / deadzone=21,11 / fast_pskip=1 / chroma_qp_offset=-3 / threads=8 / sliced_threads=0 / nr=0 / decimate=1 / interlaced=0 / bluray_compat=0 / constrained_intra=0 / bframes=3 / b_pyramid=1 / b_adapt=2 / b_bias=0 / direct=3 / weightb=1 / open_gop=0 / weightp=2 / keyint=250 / keyint_min=25 / scenecut=40 / intra_refresh=0 / rc_lookahead=40 / rc=crf / mbtree=1 / crf=18.0 / qcomp=0.60 / qpmin=10 / qpmax=51 / qpstep=4 / ip_ratio=1.40 / aq=1:1.00
Язык : French
Default : Да
Forced : Нет
Аудио
Идентификатор : 2
Формат : AC-3
Формат/Информация : Audio Coding 3
Расширение режима : CM (complete main)
Режим смешивания : Header stripping
Идентификатор кодека : A_AC3
Продолжительность : 24 м.
Вид битрейта : Постоянный
Битрейт : 192 Кбит/сек
Каналы : 2 канала
Расположение каналов : Front: L R
Частота : 48,0 КГц
Битовая глубина : 16 бит
Метод сжатия : С потерями
Размер потока : 33,1 Мбайт (12%)
Язык : Russian
Default : Да
Forced : Нет
Общее
Уникальный идентификатор : 243862839780056557098818964711099505637 (0xB77646489E5C070E9CC6647E1F129BE5)
Полное имя : C:\Users\user\Desktop\[Pokemon_Alliance]_Galactik_Football_[TV-1]_[pobel]\[Pokemon_Alliance]_Galactik_Football_[TV-1]_Episode_26_[R5-Jetix]_[pobel].mkv
Формат : Matroska
Версия формата : Version 2
Размер файла : 292 Мбайт
Продолжительность : 24 м.
Общий поток : 1667 Кбит/сек
Дата кодирования : UTC 2012-03-27 04:10:10
Программа кодирования : mkvmerge v5.4.0 ('Piper') built on Mar 10 2012 13:34:39
Библиотека кодирования : libebml v1.2.3 + libmatroska v1.3.0
Видео
Идентификатор : 1
Формат : AVC
Формат/Информация : Advanced Video Codec
Профиль формата : High@L4.1
Параметр CABAC формата : Да
Параметр ReFrames формата : 3 кадра
Режим смешивания : Header stripping
Идентификатор кодека : V_MPEG4/ISO/AVC
Продолжительность : 24 м.
Битрейт : 1442 Кбит/сек
Ширина : 640 пикселей
Высота : 480 пикселей
Соотношение сторон : 4:3
Соотношение сторон в оригинале : 4:3
Режим частоты кадров : Переменный
Частота кадров : 25,000 кадров/сек
Цветовое пространство : YUV
Субдискретизация насыщенности : 4:2:0
Битовая глубина : 8 бит
Тип развёртки : Прогрессивная
Бит/(Пиксели*Кадры) : 0.188
Размер потока : 252 Мбайт (86%)
Библиотека кодирования : x264 core 120 r2146M bcd41db
Настройки программы : cabac=1 / ref=3 / deblock=1:0:0 / analyse=0x3:0x133 / me=hex / subme=7 / psy=1 / psy_rd=1.00:0.20 / mixed_ref=1 / me_range=16 / chroma_me=1 / trellis=1 / 8x8dct=1 / cqm=0 / deadzone=21,11 / fast_pskip=1 / chroma_qp_offset=-3 / threads=8 / sliced_threads=0 / nr=0 / decimate=1 / interlaced=0 / bluray_compat=0 / constrained_intra=0 / bframes=3 / b_pyramid=1 / b_adapt=2 / b_bias=0 / direct=3 / weightb=1 / open_gop=0 / weightp=2 / keyint=250 / keyint_min=25 / scenecut=40 / intra_refresh=0 / rc_lookahead=40 / rc=crf / mbtree=1 / crf=18.0 / qcomp=0.60 / qpmin=10 / qpmax=51 / qpstep=4 / ip_ratio=1.40 / aq=1:1.00
Язык : French
Default : Да
Forced : Нет
Аудио
Идентификатор : 2
Формат : AC-3
Формат/Информация : Audio Coding 3
Расширение режима : CM (complete main)
Режим смешивания : Header stripping
Идентификатор кодека : A_AC3
Продолжительность : 24 м.
Вид битрейта : Постоянный
Битрейт : 192 Кбит/сек
Каналы : 2 канала
Расположение каналов : Front: L R
Частота : 48,0 КГц
Битовая глубина : 16 бит
Метод сжатия : С потерями
Размер потока : 33,6 Мбайт (12%)
Язык : Russian
Default : Да
Forced : Нет

Список серий

01 серия «Возвращение»
02 серия «Новая надежда»
03 серия «Вызов»
04 серия «Команда»
05 серия «Капитан»
06 серия «Второй ветер»
07 серия «Любимчик тренера»
08 серия «Шторм»
09 серия «Матч-реванш»
10 серия «Пираты»
11 серия «Профессор»
12 серия «Побег»
13 серия «Нападающий»
14 серия «Чёрная дыра»
15 серия «Последний шанс»
16 серия «Стадион Генезис»
17 серия «Приготовьтесь!»
18 серия «Под нажимом»
19 серия «Звезда»
29 серия «Метапоток»
21 серия «Расплата»
22 серия «Недостоющее звено»
23 серия «Шантаж»
24 серия «Дуэль»
25 серия «Предатель»
26 серия «Кубок»

Скриншоты

-

_________________
Отдам инвайты на Dota 2! Если кому нужны пишите в лс
Показать сообщения:    

Текущее время: Сегодня 00:26

Часовой пояс: GMT



Вы не можете начинать темы
Вы не можете отвечать на сообщения
Вы не можете редактировать свои сообщения
Вы не можете удалять свои сообщения
Вы не можете голосовать в опросах
Вы не можете прикреплять файлы к сообщениям
Вы не можете скачивать файлы