Ивановский Торрент трекер
Яндекс.Погода
 

[Цитировать]
HUNTER

Газовый свет / Gaslight-
Год выпуска: 1940
Страна: Великобритания
Жанр: детектив, триллер
Продолжительность: 01:24:09
Перевод: Авторский (одноголосый закадровый) Александр Кашкин (Первомайский)
Оригинальная аудиодорожка: Английская
Cубтитры: Русские, украинские, английские-Режиссер: Торолд Дикинсон / Thorold Dickinson
В ролях: Антон Вальбрук, Диана Виньяр, Фрэнк Петтинджелл, Кэтлин Корделл, Роберт Ньютон, Минни Рэйнер, Джимми Хэнли, Мари Райт, Обри Декстер, Мэри Хинтон-Описание:
Первая экранизация пьесы Пэтрика Хэмилтона о преступнике, который сводит свою жену с ума, чтобы завладеть спрятанными драгоценностями.
В США фильм вышел под название «Улица ангела».-За дорожку спасибо cementit и rjhlb777.
| IMDb | Сэмпл-Качество: BDRip 720p (CtrlHD)
Контейнер: MKV
Видео: x264, 958x720 (1.33:1), 24 fps, 8466 kbps
Аудио 1: Русский AC3 2.0, 48 kHz, 192 kbps
Аудио 2: Английский AC3 2.0, 48 kHz, 640 kbps
Формат субтитров: softsub (SRT)

Скриншоты

Source vs CtrlHD vs 7SinS






MI

nfo
.GENERAL iNFORMATiON
RUNTiME.......: 1h:24m
SiZE..........: 5.46 GB
ViDEO.CODEC...: x264, CRF18, L4.1
FRAMERATE.....: 24.000 fps
BiTRATE.......: 8466 Kbps
RESOLUTiON....: 958x720
AUDiO.........: English DD 2.0 @ 640kbps
SUBTiTLES.....: Eng-SDH
SUBS.FORMAT...: UTF-8 srt
CHAPTERS......: Numbered and named like on Blu-ray
SOURCE........: Gaslight 1940 1080p Blu-ray AVC LPCM 2.0-ESiR
iMDB.RATiNG...: 7.3/10 (1,996 votes)
iMDB.LiNK.....: http://www.imdb.com/title/tt0031359/
.LOG
x264 [info]: frame I:679 Avg QP:18.03 size: 88654
x264 [info]: frame P:19535 Avg QP:19.23 size: 59122
x264 [info]: frame B:100968 Avg QP:19.97 size: 42032
x264 [info]: consecutive B-frames: 0.6% 0.1% 1.3% 7.9% 11.2% 41.8% 11.1% 5.3% 6.7% 10.0% 3.9%
encoded 121182 frames, 4.28 fps, 8649.30 kb/s, duration 7:51:50.09
General
Unique ID : 202554067064410906168321040864270372744 (0x98627E8B35C67626B5B6838367184F88)
Complete name : Gaslight 1940 720p BluRay DD2.0 x264-CtrlHD.mkv
Format : Matroska
Format version : Version 2
File size : 5.57 GiB
Duration : 1h 24mn
Overall bit rate : 9 484 Kbps
Movie name : Gaslight / Газовый свет (1940) – RuTracker
Encoded date : UTC 2015-01-27 20:20:12
Writing application : mkvmerge v7.5.0 ('Glass Culture') 64bit built on Jan 4 2015 16:48:44
Writing library : libebml v1.3.1 + libmatroska v1.4.2
Attachements : cover.jpg
Video
ID : 1
Format : AVC
Format/Info : Advanced Video Codec
Format profile : High@L4.1
Format settings, CABAC : Yes
Format settings, ReFrames : 12 frames
Codec ID : V_MPEG4/ISO/AVC
Duration : 1h 24mn
Bit rate : 8 463 Kbps
Width : 958 pixels
Height : 720 pixels
Display aspect ratio : 4:3
Frame rate mode : Constant
Frame rate : 24.000 fps
Color space : YUV
Chroma subsampling : 4:2:0
Bit depth : 8 bits
Scan type : Progressive
Bits/(Pixel*Frame) : 0.511
Stream size : 4.97 GiB (89%)
Title : Gaslight 1940 720p BluRay DD2.0 x264-CtrlHD
Writing library : x264 core 140 r2377kMod 1ca7bb9
Encoding settings : cabac=1 / ref=12 / deblock=1:-3:-3 / analyse=0x3:0x113 / me=umh / subme=10 / psy=1 / fade_compensate=0.00 / psy_rd=1.10:0.00 / mixed_ref=1 / me_range=16 / chroma_me=0 / trellis=2 / 8x8dct=1 / cqm=0 / deadzone=21,11 / fast_pskip=0 / chroma_qp_offset=-2 / threads=6 / lookahead_threads=1 / sliced_threads=0 / nr=0 / decimate=0 / interlaced=0 / bluray_compat=0 / constrained_intra=0 / fgo=0 / bframes=10 / b_pyramid=2 / b_adapt=2 / b_bias=0 / direct=3 / weightb=1 / open_gop=0 / weightp=2 / keyint=250 / keyint_min=24 / scenecut=40 / intra_refresh=0 / rc=crf / mbtree=0 / crf=18.0000 / qcomp=0.70 / qpmin=0 / qpmax=69 / qpstep=4 / ip_ratio=1.20 / pb_ratio=1.10 / aq=1:0.60
Language : English
Default : Yes
Forced : No
Audio #1
ID : 2
Format : AC-3
Format/Info : Audio Coding 3
Mode extension : CM (complete main)
Format settings, Endianness : Big
Codec ID : A_AC3
Duration : 1h 24mn
Bit rate mode : Constant
Bit rate : 192 Kbps
Channel(s) : 2 channels
Channel positions : Front: L R
Sampling rate : 48.0 KHz
Bit depth : 16 bits
Compression mode : Lossy
Stream size : 116 MiB (2%)
Title : AVO – А.Кашкин
Language : Russian
Default : Yes
Forced : No
Audio #2
ID : 3
Format : AC-3
Format/Info : Audio Coding 3
Mode extension : CM (complete main)
Format settings, Endianness : Big
Codec ID : A_AC3
Duration : 1h 24mn
Bit rate mode : Constant
Bit rate : 640 Kbps
Channel(s) : 2 channels
Channel positions : Front: L R
Sampling rate : 48.0 KHz
Bit depth : 16 bits
Compression mode : Lossy
Stream size : 385 MiB (7%)
Title : Original
Language : English
Default : No
Forced : No
Text #1
ID : 4
Format : UTF-8
Codec ID : S_TEXT/UTF8
Codec ID/Info : UTF-8 Plain Text
Title : iTunes
Language : Russian
Default : No
Forced : No
Text #2
ID : 5
Format : UTF-8
Codec ID : S_TEXT/UTF8
Codec ID/Info : UTF-8 Plain Text
Title : iTunes
Language : Ukrainian
Default : No
Forced : No
Text #3
ID : 6
Format : UTF-8
Codec ID : S_TEXT/UTF8
Codec ID/Info : UTF-8 Plain Text
Language : English
Default : No
Forced : No
Text #4
ID : 7
Format : UTF-8
Codec ID : S_TEXT/UTF8
Codec ID/Info : UTF-8 Plain Text
Title : SDH
Language : English
Default : No
Forced : No
Menu
00:00:00.000 : en:Credits
00:01:32.000 : en:Dreadful murder in Pimlico Square
00:04:50.750 : en:The Mallens from No.12
00:10:28.833 : en:Muffins, maids and evening strolls
00:21:46.917 : en:Encounters in the square
00:29:21.583 : en:Punch and lady Show
00:35:09.958 : en:Winterbourne House
00:39:56.958 : en:The Cameo brooch
00:46:03.833 : en:No.14 and above
00:53:23.208 : en:Mr Ullswater
01:01:23.125 : en:Louis Bauer
01:12:12.583 : en:Alice Barlow's rubies
0 человек читают эту тему: 0 пользователей, 0 скрытых пользователей, 0 гостей

Показать сообщения:    

Текущее время: 23-Авг 01:35

Часовой пояс: UTC - 1


Вы не можете начинать темы
Вы не можете отвечать на сообщения
Вы не можете редактировать свои сообщения
Вы не можете удалять свои сообщения
Вы не можете голосовать в опросах
Вы не можете прикреплять файлы к сообщениям
Вы не можете скачивать файлы

!ВНИМАНИЕ!
Сайт не предоставляет электронные версии произведений, а занимается лишь коллекционированием и каталогизацией ссылок, присылаемых и публикуемых на форуме нашими читателями. Если вы являетесь правообладателем какого-либо представленного материала и не желаете, чтобы ссылка на него находилась в нашем каталоге, свяжитесь с нами, и мы незамедлительно удалим ее. Файлы для обмена на трекере предоставлены пользователями сайта, и администрация не несет ответственности за их содержание. Просьба не заливать файлы, защищенные авторскими правами, а также файлы нелегального содержания!