Важное объявление!
У Нас Все раздачи мультитрекерные, при нуле пиров в релизах, можете смело вставать на закачку!
 
Автор Сообщение

HUNTER

Стаж:
4 года 7 месяцев
Сообщений:
61428

Репутация: 101

[+] [-]
Вне форума [Профиль] [ЛС]

Гадкий я 2
Despicable Me 2
--Страна: США
Год выпуска: 2013
Жанр: мультфильм, комедия, приключения, семейный
Продолжительность: 01:37:52--Перевод: Профессиональный (дублированный)
Cубтитры: Русские, Английские
Оригинальная аудиодорожка: Английская--Режиссер:
Пьер Соффин, Крис Рено / Pierre Coffin, Chris Renaud
В ролях:
Стив Карелл, Кристен Уиг, Бенджамин Брэтт, Миранда Косгров, Рассел Брэнд, Кен Жонг, Стив Куган, Элси Фишер, Дэна Гайер, Мойзес Ариас, Назим Пэдрад, Кристен Шол, Пьер Соффин, Крис Рено, Николай Стоилов--Описание:Продолжение приключений суперзлодея Грю и его неуклюжих приспешников. Злодея в отставке Грю приглашают в Суперсекретную организацию, призванную защитить мир от зла. Вместе с Люси, красоткой суперагентшей, Грю должен выяснить, кто стоит за серией грандиозных преступлений, и куда, динамит их разбери, исчезают его милашки миньоны.--Доп. информация:
Источник видео, аудио, субтитров, celltimes - BDRemux (скачан с другого трекера)
Меню создано с нуля, с помощью DVD-lab PRO.
Видео перекодировано с помощью ProCoder 3 в 2 прохода.
Аудио получены с помощью программ eac3to и Sonic foundry Soft.-Меню: есть, статичное, не озвученное
Сэмпл: http://sendfile.su/932333--Тип релиза: DVD5
Контейнер: DVD-Video
Видео: NTSC 16:9 (720x480) VBR, Auto Letterboxed
Аудио 1: Russian (Dolby AC3, 5.1 ch, 448 кб/с) - дубляж
Аудио 2: English (Dolby AC3, 5.1 ch, 448 кб/с) - оригиналРелиз-группа

MI BDRemux'a

Уникальный идентификатор : 245519412144642237738751351003827182895 (0xB8B5519B6B886DA98565A69EBF289D2F)
Полное имя : E:\Despicable Me 2.mkv
Формат : Matroska
Версия формата : Version 2
Размер файла : 23,5 Гбайт
Продолжительность : 1 ч. 37 м.
Режим общего битрейта : Переменный
Общий поток : 34,4 Мбит/сек
Название фильма : Despicable Me 2
Дата кодирования : UTC 2013-10-19 16:37:24
Программа кодирования : mkvmerge v2.9.9 ('Tutu') built on Nov 25 2009 21:13:32
Библиотека кодирования : libebml v0.7.9 + libmatroska v0.8.1
Видео
Идентификатор : 1
Формат : AVC
Формат/Информация : Advanced Video Codec
Профиль формата : High@L4.1
Параметр CABAC формата : Да
Параметр ReFrames формата : 4 кадра
Идентификатор кодека : V_MPEG4/ISO/AVC
Продолжительность : 1 ч. 37 м.
Вид битрейта : Переменный
Максимальный битрейт : 32,0 Мбит/сек
Ширина : 1920 пикселей
Высота : 1080 пикселей
Соотношение сторон : 16:9
Режим частоты кадров : Постоянный
Частота кадров : 23,976 кадра/сек
Цветовое пространство : YUV
Субдискретизация насыщенности : 4:2:0
Битовая глубина : 8 бит
Тип развёртки : Прогрессивная
Язык : English
Default : Нет
Forced : Нет
Аудио #1
Идентификатор : 2
Формат : DTS
Формат/Информация : Digital Theater Systems
Режим : 16
Параметр Endianness формата : Big
Идентификатор кодека : A_DTS
Продолжительность : 1 ч. 37 м.
Вид битрейта : Постоянный
Битрейт : 768 Кбит/сек
Каналы : 6 каналов
Расположение каналов : Front: L C R, Side: L R, LFE
Частота : 48,0 КГц
Битовая глубина : 24 бит
Метод сжатия : С потерями
Задержка видео : 11 мс.
Размер потока : 538 Мбайт (2%)
Заголовок : 3/2+1
Язык : Russian
Default : Да
Forced : Нет
Аудио #2
Идентификатор : 3
Формат : DTS
Формат/Информация : Digital Theater Systems
Профиль формата : MA / Core
Режим : 16
Параметр Endianness формата : Big
Идентификатор кодека : A_DTS
Продолжительность : 1 ч. 37 м.
Вид битрейта : Переменный
Битрейт : Неизвестно / 1509 Кбит/сек
Каналы : 6 каналов
Расположение каналов : Front: L C R, Side: L R, LFE
Частота : 48,0 КГц
Битовая глубина : 24 бит
Метод сжатия : Без потерь / Lossy
Заголовок : Lossless
Язык : English
Default : Нет
Forced : Нет
Аудио #3
Идентификатор : 4
Формат : AC-3
Формат/Информация : Audio Coding 3
Профиль формата : Dolby Digital
Расширение режима : CM (complete main)
Параметр Endianness формата : Big
Идентификатор кодека : A_AC3
Продолжительность : 1 ч. 37 м.
Вид битрейта : Постоянный
Битрейт : 192 Кбит/сек
Каналы : 2 канала
Расположение каналов : Front: L R
Частота : 48,0 КГц
Битовая глубина : 16 бит
Метод сжатия : С потерями
Размер потока : 135 Мбайт (1%)
Заголовок : AC3.192.Kbps (2ch) English (Commentary)
Язык : English
Default : Нет
Forced : Нет
Текст #1
Идентификатор : 5
Формат : UTF-8
Идентификатор кодека : S_TEXT/UTF8
Идентификатор кодека/Информация : UTF-8 Plain Text
Заголовок : Russian (Full)
Язык : Russian
Default : Нет
Forced : Нет
Текст #2
Идентификатор : 6
Формат : UTF-8
Идентификатор кодека : S_TEXT/UTF8
Идентификатор кодека/Информация : UTF-8 Plain Text
Заголовок : Russian (Forced)
Язык : Russian
Default : Нет
Forced : Нет
Текст #3
Идентификатор : 7
Формат : UTF-8
Идентификатор кодека : S_TEXT/UTF8
Идентификатор кодека/Информация : UTF-8 Plain Text
Заголовок : English (Full)
Язык : English
Default : Нет
Forced : Нет
Текст #4
Идентификатор : 8
Формат : UTF-8
Идентификатор кодека : S_TEXT/UTF8
Идентификатор кодека/Информация : UTF-8 Plain Text
Заголовок : English (SDH)
Язык : English
Default : Нет
Forced : Нет
Текст #5
Идентификатор : 9
Формат : UTF-8
Идентификатор кодека : S_TEXT/UTF8
Идентификатор кодека/Информация : UTF-8 Plain Text
Заголовок : English (SDH-Colored)
Язык : English
Default : Нет
Forced : Нет
Меню
00:00:00.000 : en:Chapter 00
00:03:22.994 : en:Chapter 01
00:08:04.734 : en:Chapter 02
00:15:50.866 : en:Chapter 03
00:18:28.232 : en:Chapter 04
00:24:36.892 : en:Chapter 05
00:30:50.723 : en:Chapter 06
00:34:40.703 : en:Chapter 07
00:40:48.279 : en:Chapter 08
00:46:26.200 : en:Chapter 09
00:51:23.121 : en:Chapter 10
00:56:27.425 : en:Chapter 11
01:00:00.471 : en:Chapter 12
01:03:27.053 : en:Chapter 13
01:08:44.078 : en:Chapter 14
01:14:01.979 : en:Chapter 15
01:18:08.058 : en:Chapter 16
01:22:33.907 : en:Chapter 17
01:27:09.098 : en:Chapter 18
01:30:33.719 : en:Chapter 19

DVDInfo

Title: Despicable Me 2
Size: 4.33 Gb ( 4 543 282 KBytes ) - DVD-5
Enabled regions: 1, 2, 3, 4, 5, 6, 7, 8
VTS_01 :
Play Length: 01:37:52
Video: NTSC 16:9 (720x480) VBR, Auto Pan&Scan
Audio:
Russian (Dolby AC3, 6 ch)
English (Dolby AC3, 6 ch)
Subtitles:
Russian
Russian
English

Программы используемые для создания релиза

Видео
ProCoder 3 - конвертация видео
AviSynth - обработка видео
FFMpegSource2 - индексирование
Звук
eac3to- разборка на waw
Sonic foundry Soft-получение ac3 448
Програмы для разборки/сборки
eac3to - разложение BD на потоки
Работа с меню и реавторинг
DVD-lab PRO - создание меню
Adobe Photoshop - редактирование меню
DVDReMakePro - реавторинг диска

Скрипт

LoadPlugin("D:\programs\FFVideoSource2\ffms2.dll") # подключение декодера
FFVideoSource("D:\BD-DVD\Despicable Me 2.mkv") #открытие видео
LoadPlugin("D:\programs\AutoYUY2\AutoYUY2.dll") #подключение плагина
AutoYUY2() # конверсия цветового пространства
LoadPlugin("D:\programs\ColorMatrix\ColorMatrix.dll")
ColorMatrix(mode="Rec.709->Rec.601", inputFR=false, clamp=0) # 16-235
#ColorMatrix(mode="Rec.709->Rec.601", inputFR=true, clamp=0) # 0-255
BicubicResize(720, 480, 0, 0.5) #ресайз методом Catmull-Rom spline
AssumeFPS ("ntsc_film") #изменение частоты кадров под стандарт NTSC

-
-

Скриншоты меню

Скриншоты



-

Обложки

Скоро

_________________
Показать сообщения:    

Текущее время: Сегодня 15:55

Часовой пояс: GMT



Вы не можете начинать темы
Вы не можете отвечать на сообщения
Вы не можете редактировать свои сообщения
Вы не можете удалять свои сообщения
Вы не можете голосовать в опросах
Вы не можете прикреплять файлы к сообщениям
Вы не можете скачивать файлы
Наши партнеры: интернет магазин Ивановского трикотажа textilla.ru