Важное объявление!
У Нас Все раздачи мультитрекерные, при нуле пиров в релизах, можете смело вставать на закачку!
 
Автор Сообщение

HUNTER

Стаж:
4 года 8 месяцев
Сообщений:
61987

Репутация: 101

[+] [-]
Вне форума [Профиль] [ЛС]

Гадкая такса / The Ugly Dachshund
Страна: США
Студия: Walt Disney Productions
Жанр: комедия, семейный
Год выпуска: 1966
Продолжительность: 01:33:31
Перевод: Профессиональный (двухголосый закадровый) студия Инис по заказу ТВ3
Cубтитры: английские
Оригинальная аудиодорожка: английский
Режиссер: Норман Токарь / Norman Tokar
В ролях: Дин Джонс, Сюзанн Плешетт, Чарльз Рагглз, Келли Тордсэн, Парли Баэр, Роберт Кино, Мако, Чарльз Лэйн, Тони Данте, Джо Дэвлин
Описание: Фрэн Гаррисон переживает волнительный период, потому что её такса-чемпионка, Данке, ждёт щенков, и девушка надеется, что один из них тоже станет чемпионом. Но во время визита к ветеринару её мужа Джима уговаривают на то, чтобы Данке выкормила щенка датского дога, которого бросила мать. Джим решает оставить датского дога у себя.
В результате у Брутуса возникает проблема: он думает, что он такса, но при этом он слишком большой, чтобы быть ручной собакой. Когда Фрэн в очередной раз высмеивает Брутуса, Джим придумывает план с целью доказать всем (и Фрэн), что датский дог может быть чем-то большим, чем просто гадкой таксой.

Доп. информация: За русскую дорожку спасибо Старьёвщик.

Sample
Тип релиза: WEB-DL 720p
Контейнер: MKV
Видео: MPEG4 AVC Video, H264, 1194x720, 23.976 fps, 4184 kbps
Аудио: Russian (AC3, 2 ch, 192 kbps, 16 bits, 48.0 KHz) - DVO
Аудио 2: English (AC3, 6 ch, 384 kbps, 16 bits, 48.0 KHz) - оригинал
Формат субтитров: softsub (SRT)

MediaInfo

General
Unique ID : 186758032985247260390893139739888715598 (0x8C8049EF541F6066AF67E6A69EB2074E)
Complete name : K:\The Ugly Dachshund 1966 WEB-DL 720p.mkv
Format : Matroska
Format version : Version 4 / Version 2
File size : 3.17 GiB
Duration : 1h 33mn
Overall bit rate : 4 857 Kbps
Encoded date : UTC 2015-10-07 23:52:45
Writing application : mkvmerge v6.1.0 ('Old Devil') built on Mar 2 2013 14:32:37
Writing library : libebml v1.3.0 + libmatroska v1.4.0
Video
ID : 1
Format : AVC
Format/Info : Advanced Video Codec
Format profile : High@L3.1
Format settings, CABAC : No
Format settings, ReFrames : 2 frames
Codec ID : V_MPEG4/ISO/AVC
Duration : 1h 33mn
Bit rate : 4 184 Kbps
Width : 1 194 pixels
Height : 720 pixels
Display aspect ratio : 1.658
Frame rate mode : Constant
Frame rate : 23.976 fps
Color space : YUV
Chroma subsampling : 4:2:0
Bit depth : 8 bits
Scan type : Progressive
Bits/(Pixel*Frame) : 0.203
Stream size : 2.73 GiB (86%)
Language : English
Default : Yes
Forced : No
Color primaries : BT.709
Transfer characteristics : BT.709
Matrix coefficients : BT.709
Audio #1
ID : 2
Format : AC-3
Format/Info : Audio Coding 3
Mode extension : CM (complete main)
Format settings, Endianness : Big
Codec ID : A_AC3
Duration : 1h 33mn
Bit rate mode : Constant
Bit rate : 192 Kbps
Channel count : 2 channels
Channel positions : Front: L R
Sampling rate : 48.0 KHz
Bit depth : 16 bits
Compression mode : Lossy
Stream size : 128 MiB (4%)
Language : Russian
Default : Yes
Forced : No
Audio #2
ID : 3
Format : AC-3
Format/Info : Audio Coding 3
Mode extension : CM (complete main)
Format settings, Endianness : Big
Codec ID : A_AC3
Duration : 1h 33mn
Bit rate mode : Constant
Bit rate : 384 Kbps
Channel count : 6 channels
Channel positions : Front: L C R, Side: L R, LFE
Sampling rate : 48.0 KHz
Bit depth : 16 bits
Compression mode : Lossy
Stream size : 257 MiB (8%)
Language : English
Default : No
Forced : No
Text
ID : 4
Format : UTF-8
Codec ID : S_TEXT/UTF8
Codec ID/Info : UTF-8 Plain Text
Language : English
Default : No
Forced : No
Menu
00:00:00.000 : en:Opening Titles
00:09:04.000 : en:Names For The Puppies
00:18:03.000 : en:He's Growing
00:30:09.000 : en:Playing With Yarn
00:36:25.000 : en:Bad Dog
00:45:04.000 : en:The Chase
00:53:14.000 : en:Mr. Toyama
00:58:40.000 : en:That's My Bone
01:07:31.000 : en:Brutus The Hero
01:16:35.000 : en:Make A Fine Show Dog
01:26:11.000 : en:The Judging
01:33:21.000 : en:End Credits

Скриншоты


_________________
Показать сообщения:    

Текущее время: Сегодня 12:44

Часовой пояс: GMT



Вы не можете начинать темы
Вы не можете отвечать на сообщения
Вы не можете редактировать свои сообщения
Вы не можете удалять свои сообщения
Вы не можете голосовать в опросах
Вы не можете прикреплять файлы к сообщениям
Вы не можете скачивать файлы
Наши партнеры: интернет магазин Ивановского трикотажа textilla.ru