Гавайи / Hawaii (Джордж Рой Хилл / George Roy Hill) [1966, США, драма, мелодрама, приключения, HDTV 1080i] MVO (НТВ+) + Sub Eng + Original Eng :: Ивановский Торрент трекер
Важное объявление!
У Нас Все раздачи мультитрекерные, при нуле пиров в релизах, можете смело вставать на закачку!
Статистика раздачи
Размер:     |    Зарегистрирован:     |    Скачан:     |   
Нет
 
     
 
 
Автор Сообщение

HUNTER

Стаж:
4 года 11 месяцев
Сообщений:
66090

Репутация: 101

[+] [-]
Вне форума [Профиль] [ЛС]

Гавайи / Hawaii
Страна: США
Студия: The Mirisch Corporation
Жанр: драма, мелодрама, приключения
Год выпуска: 1966
Продолжительность: 02:34:44
Перевод: Профессиональный (многоголосый закадровый) НТВ+
Cубтитры: английские
Оригинальная аудиодорожка: английский
Режиссер: Джордж Рой Хилл / George Roy Hill
В ролях: Джули Эндрюс / Julie Andrews... Jerusha Bromley Hale
Макс фон Зюдов / Max von Sydow... Abner Hale
Ричард Харрис / Richard Harris... Rafer Hoxworth
Джин Хэкман / Gene Hackman... Rev. John Whipple
Кэрролл О’Коннор / Carroll O'Connor... Charles Bromley
Жослин ЛаГарде / Jocelyne LaGarde... Queen Malama
Ману Тупу / Manu Tupou... Keoki
Тед Нобрига / Ted Nobriga... Kelolo
Элизабет Лог / Elizabeth Logue... Noelani
Джон Каллум / John Cullum... Rev. Immanuel Quigley
Джордж Роуз / George Rose... Capt. Janders
Лу Антонио / Lou Antonio... Rev. Abraham Hewlett
Торин Тэтчер / Torin Thatcher... Rev. Thorn
Майкл Константин / Michael Constantine... Mason
Малкольм Аттербери / Malcolm Atterbury... Gideon Hale
Элизабет Коул / Elizabeth Cole... Abigail Bromley
Джон Хардинг / John Harding... Collins
Дайан Шерри / Diane Sherry... Charity Bromley
Хизер Мензис / Heather Menzies... Mercy Bromley
Локелани Чикарелл / Lokelani S. Chicarell... Iliki
Дороти Джикинс / Dorothy Jeakins... Hepzibah Hale
Бетт Мидлер / Bette Midler... Passenger
Описание: Экранизация третьей части одноименного романа Джеймса Миченера (James Michener), состоящего из шести частей. Великолепный актерский состав обеспечивает успех этому фильму, действие которого происходит в начале XIX века. "Гавайи" сосредоточен на критически важном периоде когда на острова пришла коммерция, коррупция и перестройка всего на западный манер. Превосходное производство, игра актеров и режиссура придают глубину и достоверность личной трагедии, вызванной столкновением двух цивилизаций.
Съемки велись в море рядом с Норвегией и в Новой Англии, Голливуде, на Гавайях и Таити. Это повлекло значительные затраты в 15 миллионов долларов, включая 600000 за права на фильм и семь лет работы. Фред Зиннеманн, первоначально настроенный продюсировать и быть режиссером, работал четыре с половиной года, после чего работу продолжил Хилл.
В 1820-х годах Эбнер Хэйл, целеустремленный и лишенный чувства юмора миссионер, женится на прекрасной Джеруше Бромли и отвозит ее на экзотические Гавайи, где ему предстоит работать. Однако разрыв между двумя культурами слишком велик, и вместо понимания приходит трагедия…
7 номинаций на "Оскар-1967"
- лучшая женская роль второго плана (Жослин Лагард)
- лучший оператор (Расселл Харлэн)
- лучшие костюмы (Дороти Джикинс)
- лучшая музыка (Элмер Бернстайн)
- лучшая песня ("My Wishing Doll" Мэк Дэвид, Элмер Бернстайн)
- лучшие спецэффекты (Linwood G. Dunn)
- лучший звук (Gordon Sawyer)
2 "Золотых глобуса" - музыка и актриса второго плана (Жослин Лагард) и номинация за лучшего актёра (драма) - фон Зюдов
II Сэмпл II IMDB II
Доп. информация:
Оригинальная дорога и субтитры взяты с этой раздачи спасибо palmeiras
Тип релиза: HDTV 1080i
Контейнер: MKV
Видео: AVC 1920x1080 (16:9) 25.0ps Bit rate 5742Kbps
Аудио 1: MP2 48.0 KHz 2ch. 192kbps rus mvo
Аудио 2: AC3 48.0 KHz 2ch. 192kbps eng
Формат субтитров: softsub (SRT)

MediaInfo

Общее
Уникальный идентификатор : 188249387757191661442590973295203784923 (0x8D9F8366EF5E3A249520D029712518DB)
Полное имя : E:\torrent\Hawaii.1966.HDTV1080i.mkv
Формат : Matroska
Версия формата : Version 4 / Version 2
Размер файла : 6,76 Гбайт
Продолжительность : 2 ч. 34 м.
Общий поток : 6251 Кбит/сек
Дата кодирования : UTC 2014-04-18 06:55:16
Программа кодирования : mkvmerge v6.8.0 ('Theme for Great Cities') 32bit built on Mar 2 2014 21:27:07
Библиотека кодирования : libebml v1.3.0 + libmatroska v1.4.1
Видео
Идентификатор : 1
Формат : AVC
Формат/Информация : Advanced Video Codec
Профиль формата : High@L4.0
Параметр CABAC формата : Да
Параметр ReFrames формата : 3 кадра
Параметр GOP формата : M=4, N=32
Идентификатор кодека : V_MPEG4/ISO/AVC
Продолжительность : 2 ч. 34 м.
Битрейт : 5742 Кбит/сек
Ширина : 1920 пикселей
Высота : 1080 пикселей
Соотношение сторон : 16:9
Режим частоты кадров : Постоянный
Частота кадров : 25,000 кадров/сек
Стандарт вещания : Component
Цветовое пространство : YUV
Субдискретизация насыщенности : 4:2:0
Битовая глубина : 8 бит
Тип развёртки : Чересстрочная
Порядок развёртки : Верхнее поле первое
Бит/(Пиксели*Кадры) : 0.111
Размер потока : 6,21 Гбайт (92%)
Заголовок : Hawaii.1966.HDTV1080i
Default : Да
Forced : Нет
Основные цвета : BT.709
Характеристики трансфера : BT.709
Коэффициенты матрицы : BT.709
Аудио #1
Идентификатор : 2
Формат : MPEG Audio
Версия формата : Version 1
Профиль формата : Layer 2
Идентификатор кодека : A_MPEG/L2
Идентификатор кодека/Подсказка : MP2
Продолжительность : 2 ч. 34 м.
Вид битрейта : Постоянный
Битрейт : 192 Кбит/сек
Каналы : 2 канала
Частота : 48,0 КГц
Метод сжатия : С потерями
Размер потока : 213 Мбайт (3%)
Заголовок : Hawaii.1966_MP2_2ch_MVO_NTV+
Язык : Russian
Default : Да
Forced : Нет
Аудио #2
Идентификатор : 3
Формат : AC-3
Формат/Информация : Audio Coding 3
Расширение режима : CM (complete main)
Параметр Endianness формата : Big
Идентификатор кодека : A_AC3
Продолжительность : 2 ч. 34 м.
Вид битрейта : Постоянный
Битрейт : 192 Кбит/сек
Каналы : 2 канала
Расположение каналов : Front: L R
Частота : 48,0 КГц
Битовая глубина : 16 бит
Метод сжатия : С потерями
Размер потока : 213 Мбайт (3%)
Заголовок : Hawaii.1966_AC3_2ch_original eng
Язык : English
Default : Нет
Forced : Нет
Текст
Идентификатор : 4
Формат : UTF-8
Идентификатор кодека : S_TEXT/UTF8
Идентификатор кодека/Информация : UTF-8 Plain Text
Заголовок : Hawaii.1966_subtitle eng
Язык : English
Default : Нет
Forced : Нет

Скриншот с названием фильма

Скриншоты


Сравнение с DVD



_________________
Показать сообщения:    

Текущее время: Сегодня 22:44

Часовой пояс: GMT



Вы не можете начинать темы
Вы не можете отвечать на сообщения
Вы не можете редактировать свои сообщения
Вы не можете удалять свои сообщения
Вы не можете голосовать в опросах
Вы не можете прикреплять файлы к сообщениям
Вы не можете скачивать файлы