Ивановский Торрент трекер
Яндекс.Погода
 

[Цитировать]
HUNTER

В час ночи / One A.M.- Год выпуска: 1916
Страна: США
Жанр: комедия
Продолжительность: 00:27:29
Перевод: Субтитры
Оригинальная аудиодорожка: музыкальное сопровождение
Cубтитры: Русские, английские интертитры-Режиссер: Чарльз Чаплин / Charles Chaplin
В ролях: Чарльз Чаплин, Альберт Остин-Описание:
Сюжет фильма представляет собой переделку для кинематографа классической комедийной репризы из репертуара группы Фреда Карно. Герой — богатый бездельник, который возвращается домой в сильном подпитии и долго и безуспешно пытается добраться из прихожей первого этажа своего дома в спальню, находящуюся на втором этаже. Любой встреченный им предмет мебели (вращающийся столик, коврик, чучела медведя и рыси, шкура тигра, маятник часов и другие) воспринимается им как препятствие и преодолевается в несколько приёмов. При этом герой прилагает огромные усилия для того, чтобы не потерять «аристократической» манеры поведения.- | IMDb | Сэмпл-Качество: BDRemux 1080p (Chaplin's Mutual Comedies 1916-1917 1080p Blu-ray AVC DD 2.0, thx batier22)
Контейнер: MKV
Видео: AVC, 1920x1080 (1.33:1), 23.976 fps, 25000 kbps
Аудио 1: AС3, 2.0, 48 kHz, 192 kbps — Music by Carl Davis
Аудио 2: AС3, 2.0, 48 kHz, 192 kbps— Alternate Improvisational Piano by Gabriel Thibaudeau
Формат субтитров: softsub (SRT)

Скриншоты


MI

General
Unique ID : 217043360612502579070509837302202049487 (0xA34907DECCC19032A7A46635DA3723CF)
Complete name : One.A.M.1916.1080p.Remux.mkv
Format : Matroska
Format version : Version 2
File size : 4.87 GiB
Duration : 27mn 29s
Overall bit rate mode : Variable
Overall bit rate : 25.4 Mbps
Movie name : One A.M. / В час ночи (1916) – RuTracker
Encoded date : UTC 2014-08-27 21:50:54
Writing application : mkvmerge v7.0.0 ('Where We Going') 64bit built on Jun 9 2014 15:16:27
Writing library : libebml v1.3.0 + libmatroska v1.4.1
Attachment : Yes
Video
ID : 1
Format : AVC
Format/Info : Advanced Video Codec
Format profile : High@L4.1
Format settings, CABAC : Yes
Format settings, ReFrames : 4 frames
Format settings, GOP : M=3, N=24
Codec ID : V_MPEG4/ISO/AVC
Duration : 27mn 29s
Bit rate mode : Variable
Bit rate : 24.5 Mbps
Maximum bit rate : 35.0 Mbps
Width : 1 920 pixels
Height : 1 080 pixels
Display aspect ratio : 16:9
Frame rate mode : Constant
Frame rate : 23.976 fps
Standard : NTSC
Color space : YUV
Chroma subsampling : 4:2:0
Bit depth : 8 bits
Scan type : Progressive
Bits/(Pixel*Frame) : 0.493
Stream size : 4.70 GiB (96%)
Title : Chaplin's Mutual Comedies 1916-1917 1080p Blu-ray AVC DD 2.0
Language : English
Default : Yes
Forced : No
Color primaries : BT.709
Transfer characteristics : BT.709
Matrix coefficients : BT.709
Audio #1
ID : 2
Format : AC-3
Format/Info : Audio Coding 3
Mode extension : CM (complete main)
Format settings, Endianness : Big
Codec ID : A_AC3
Duration : 27mn 29s
Bit rate mode : Constant
Bit rate : 192 Kbps
Channel(s) : 2 channels
Channel positions : Front: L R
Sampling rate : 48.0 KHz
Bit depth : 16 bits
Compression mode : Lossy
Stream size : 37.7 MiB (1%)
Title : Music by Carl Davis
Default : Yes
Forced : No
Audio #2
ID : 3
Format : AC-3
Format/Info : Audio Coding 3
Mode extension : CM (complete main)
Format settings, Endianness : Big
Codec ID : A_AC3
Duration : 27mn 29s
Bit rate mode : Constant
Bit rate : 192 Kbps
Channel(s) : 2 channels
Channel positions : Front: L R
Sampling rate : 48.0 KHz
Bit depth : 16 bits
Compression mode : Lossy
Stream size : 37.7 MiB (1%)
Title : Alternate Improvisational Piano by Gabriel Thibaudeau
Default : No
Forced : No
Text
ID : 4
Format : UTF-8
Codec ID : S_TEXT/UTF8
Codec ID/Info : UTF-8 Plain Text
Language : Russian
Default : Yes
Forced : No
Menu
00:00:00.000 : en:Chapter 1
00:06:07.534 : en:Chapter 2
00:11:24.392 : en:Chapter 3
00:15:01.818 : en:Chapter 4
00:20:08.833 : en:Chapter 5
Показать сообщения:    

Текущее время: 22-Сен 19:30

Часовой пояс: UTC - 1


Вы не можете начинать темы
Вы не можете отвечать на сообщения
Вы не можете редактировать свои сообщения
Вы не можете удалять свои сообщения
Вы не можете голосовать в опросах
Вы не можете прикреплять файлы к сообщениям
Вы не можете скачивать файлы

!ВНИМАНИЕ!
Сайт не предоставляет электронные версии произведений, а занимается лишь коллекционированием и каталогизацией ссылок, присылаемых и публикуемых на форуме нашими читателями. Если вы являетесь правообладателем какого-либо представленного материала и не желаете, чтобы ссылка на него находилась в нашем каталоге, свяжитесь с нами, и мы незамедлительно удалим ее. Файлы для обмена на трекере предоставлены пользователями сайта, и администрация не несет ответственности за их содержание. Просьба не заливать файлы, защищенные авторскими правами, а также файлы нелегального содержания!