Ивановский Торрент трекер
Яндекс.Погода
 

[Цитировать]
HUNTER

В упор / Point Blank
Страна: США
Жанр: триллер, драма, криминал
Год выпуска: 1967
Продолжительность: 01:31:52
Перевод: Профессиональный (многоголосый закадровый) | Somewax
Cубтитры: русские, английские
Оригинальная аудиодорожка: английский
Режиссер: Джон Бурмен / John Boorman
В ролях: Ли Марвин, Энджи Дикинсон, Кинен Уинн, Кэррол О’Коннор, Ллойд Бокнер, Майкл Стронг, Джон Вернон, Шэрон Эккер, Джеймс Сиккинг, Сандра Уорнер
Описание: Гангстера Уокера, которого подло подставил напарник Риз, вот уже два года считают погибшим. Но Уокер возвращается и начинает мстить мафии, требуя украденные у него 93 000 долларов
Он - герой-одиночка со своим кодексом чести, одержимый жаждой мести. Деньги лишь предлог, главное для Уокера - получить моральную компенсацию за своё задетое самолюбие...

Исходник: Point Blank 1967 1080p Blu-ray AVC DTS-HD MA 1.0-LAZERS @ HDBits
Тип релиза: BDRemux 1080p | sample
Контейнер: MKV
Видео: MPEG-4 AVC Video / 24722 kbps / 1080p / 23.976 fps / 16:9 / High Profile 4.1
Аудио #1: Russian AC3 2ch 48kHz 192Kbps | MVO Somewax
Аудио #2: DTS-HD MA / 823 kbps / 1.0 / 48 kHz / 823 kbps / 24-bit (DTS Core: 1.0 / 48 kHz / 768 kbps / 24-bit) | Original
Аудио #3: English AC3 1ch 48kHz 192Kbps | Commentary
Формат субтитров: softsub (SRT)
Главы: есть

MediaInfo
General
Complete name : D:\...\Point.Blank.1967.1080p.Remux.AVC.Rus.Eng-E76.mkv
Format : Matroska
Format version : Version 2
File size : 16.6 GiB
Duration : 1h 31mn
Overall bit rate mode : Variable
Overall bit rate : 25.9 Mbps
Movie name : Point.Blank.1967.1080p.Remux.AVC.Rus.Eng-E76
Encoded date : UTC 2014-06-29 07:53:55
Writing application : mkvmerge v7.0.0 ('Where We Going') 64bit built on Jun 9 2014 15:16:27
Writing library : libebml v1.3.0 + libmatroska v1.4.1
Attachment : Yes
Video
ID : 1
Format : AVC
Format/Info : Advanced Video Codec
Format profile : High@L4.1
Format settings, CABAC : Yes
Format settings, ReFrames : 2 frames
Codec ID : V_MPEG4/ISO/AVC
Duration : 1h 31mn
Bit rate mode : Variable
Bit rate : 24.2 Mbps
Width : 1 920 pixels
Height : 1 080 pixels
Display aspect ratio : 16:9
Frame rate mode : Constant
Frame rate : 23.976 fps
Color space : YUV
Chroma subsampling : 4:2:0
Bit depth : 8 bits
Scan type : Progressive
Bits/(Pixel*Frame) : 0.487
Stream size : 15.6 GiB (93%)
Title : Point Blank (1967)
Language : English
Default : Yes
Forced : No
Audio #1
ID : 2
Format : AC-3
Format/Info : Audio Coding 3
Mode extension : CM (complete main)
Format settings, Endianness : Big
Codec ID : A_AC3
Duration : 1h 31mn
Bit rate mode : Constant
Bit rate : 192 Kbps
Channel(s) : 2 channels
Channel positions : Front: L R
Sampling rate : 48.0 KHz
Bit depth : 16 bits
Compression mode : Lossy
Stream size : 126 MiB (1%)
Title : MVO Somewax
Language : Russian
Default : Yes
Forced : No
Audio #2
ID : 3
Format : DTS
Format/Info : Digital Theater Systems
Format profile : MA / Core
Codec ID : A_DTS
Duration : 1h 31mn
Bit rate mode : Variable
Bit rate : 800 Kbps / 755 Kbps
Channel(s) : 1 channel
Channel positions : Front: C
Sampling rate : 48.0 KHz
Bit depth : 24 bits
Compression mode : Lossless / Lossy
Title : Original
Language : English
Default : No
Forced : No
Audio #3
ID : 4
Format : AC-3
Format/Info : Audio Coding 3
Mode extension : CM (complete main)
Format settings, Endianness : Big
Codec ID : A_AC3
Duration : 1h 31mn
Bit rate mode : Constant
Bit rate : 192 Kbps
Channel(s) : 1 channel
Channel positions : Front: C
Sampling rate : 48.0 KHz
Bit depth : 16 bits
Compression mode : Lossy
Stream size : 126 MiB (1%)
Title : Commentary
Language : English
Default : No
Forced : No
Text #1
ID : 5
Format : UTF-8
Codec ID : S_TEXT/UTF8
Codec ID/Info : UTF-8 Plain Text
Title : Somewax
Language : Russian
Default : No
Forced : No
Text #2
ID : 6
Format : UTF-8
Codec ID : S_TEXT/UTF8
Codec ID/Info : UTF-8 Plain Text
Language : English
Default : No
Forced : No
Text #3
ID : 7
Format : UTF-8
Codec ID : S_TEXT/UTF8
Codec ID/Info : UTF-8 Plain Text
Title : SDH
Language : English
Default : No
Forced : No
Menu
00:00:00.000 : en:00:00:00.000
00:04:50.957 : en:00:04:50.957
00:06:55.540 : en:00:06:55.540
00:09:58.389 : en:00:09:58.389
00:14:12.643 : en:00:14:12.643
00:18:58.929 : en:00:18:58.929
00:22:02.738 : en:00:22:02.738
00:26:54.238 : en:00:26:54.238
00:28:33.587 : en:00:28:33.587
00:32:21.648 : en:00:32:21.648
00:35:57.113 : en:00:35:57.113
00:40:06.112 : en:00:40:06.112
00:43:00.328 : en:00:43:00.328
00:47:34.268 : en:00:47:34.268
00:52:38.864 : en:00:52:38.864
00:56:17.124 : en:00:56:17.124
00:59:29.441 : en:00:59:29.441
01:05:15.453 : en:01:05:15.453
01:09:59.779 : en:01:09:59.779
01:14:47.191 : en:01:14:47.191
01:17:55.546 : en:01:17:55.546
01:23:16.074 : en:01:23:16.074
01:26:34.648 : en:01:26:34.648
01:30:34.679 : en:01:30:34.679
Скриншоты
Показать сообщения:    

Текущее время: 18-Окт 04:43

Часовой пояс: UTC - 1


Вы не можете начинать темы
Вы не можете отвечать на сообщения
Вы не можете редактировать свои сообщения
Вы не можете удалять свои сообщения
Вы не можете голосовать в опросах
Вы не можете прикреплять файлы к сообщениям
Вы не можете скачивать файлы

!ВНИМАНИЕ!
Сайт не предоставляет электронные версии произведений, а занимается лишь коллекционированием и каталогизацией ссылок, присылаемых и публикуемых на форуме нашими читателями. Если вы являетесь правообладателем какого-либо представленного материала и не желаете, чтобы ссылка на него находилась в нашем каталоге, свяжитесь с нами, и мы незамедлительно удалим ее. Файлы для обмена на трекере предоставлены пользователями сайта, и администрация не несет ответственности за их содержание. Просьба не заливать файлы, защищенные авторскими правами, а также файлы нелегального содержания!