Важное объявление!
У Нас Все раздачи мультитрекерные, при нуле пиров в релизах, можете смело вставать на закачку!
 
Автор Сообщение

HUNTER

Стаж:
4 года 6 месяцев
Сообщений:
60970

Репутация: 101

[+] [-]
Вне форума [Профиль] [ЛС]

В поисках Бобби Фишера / Выбор игры / Searching for Bobby Fischer
Страна: США
Студия: Paramount, Mirage Entertainment
Жанр: драма, биография
Год выпуска: 1993
Продолжительность: 01:49:59
Перевод: Профессиональный (двухголосый закадровый) НТВ+ (Ольга Плетнёва, Павел Кипнес)
Перевод 2: Профессиональный (многоголосый закадровый) Премьер Видео Фильм
Перевод 3: Одноголосый закадровый - Stalk
Cубтитры: русские, английские
Оригинальная аудиодорожка: английский
Режиссер: Стивен Зеллиан / Steven Zaillian
В ролях: Макс Померанц, Бен Кингсли, Джо Мантенья, Джоан Аллен, Лоренс Фишбёрн, Майкл Ниренберг, Роберт Стивенс, Дэвид Пэймер, Хэл Скардино, Васек Симек
Описание: Джош Вайцкен, как и все американские мальчишки учится в колледже и обожает бейсбол. Но все меняется в тот день, когда он впервые в жизни оказывается за шахматной доской. Ребенок сразу выигрывает партию у своего отца. Вскоре становится очевидно, что у Джоша просто уникальные способности.
Родители юного гения, окрыленные успехами сына, нанимают ему известного шахматного преподавателя Брюса Пандолфини в надежде, что он сделает из их мальчика второго Бобби Фишера.

Доп. информация: За основу взят релиз от HDClub, выкинуты дороги в ААС и добавлены дороги и сабы отсюда. Спасибо __СЕРЁГА__. Перевод с тунца идеинтичен Нтв+.
Sample
Тип релиза: WEB-DL 720p
Контейнер: MKV
Видео: MPEG4 AVC Video, 16:9, 1280x718, 23,976 fps, 3904 kbps
Аудио: Russian (AC3, 6 ch, 448 kbps, 16 bits, 48.0 KHz) - DVO Нтв+
Аудио 2: Russian (AC3, 2 ch, 192 kbps, 16 bits, 48.0 KHz) - MVO Премьер
Аудио 3: Russian (AC3, 2 ch, 192 kbps, 16 bits, 48.0 KHz) - VO Stalk
Аудио 4: English (AC3, 6 ch, 448 kbps, 16 bits, 48.0 KHz) - оригинал
Формат субтитров: softsub (SRT)

MediaInfo
General
Unique ID : 219557752370708480149777771770127965617 (0xA52D48F489009AD2B1E27DA64801DDB1)
Complete name : E:\1\В поисках Бобби Фишера 1993 WEB-DL 720p.mkv
Format : Matroska
Format version : Version 4 / Version 2
File size : 4.06 GiB
Duration : 1h 50mn
Overall bit rate : 5 290 Kbps
Encoded date : UTC 2014-06-20 06:39:24
Writing application : mkvmerge v6.1.0 ('Old Devil') built on Mar 2 2013 14:32:37
Writing library : libebml v1.3.0 + libmatroska v1.4.0
Video
ID : 1
Format : AVC
Format/Info : Advanced Video Codec
Format profile : High@L3.1
Format settings, CABAC : No
Format settings, ReFrames : 2 frames
Codec ID : V_MPEG4/ISO/AVC
Duration : 1h 50mn
Bit rate : 3 904 Kbps
Width : 1 280 pixels
Height : 718 pixels
Display aspect ratio : 16:9
Frame rate mode : Constant
Frame rate : 23.976 fps
Color space : YUV
Chroma subsampling : 4:2:0
Bit depth : 8 bits
Scan type : Progressive
Bits/(Pixel*Frame) : 0.177
Stream size : 3.00 GiB (74%)
Language : English
Default : Yes
Forced : No
Color primaries : BT.709
Transfer characteristics : BT.709
Matrix coefficients : BT.709
Audio #1
ID : 2
Format : AC-3
Format/Info : Audio Coding 3
Mode extension : CM (complete main)
Format settings, Endianness : Big
Codec ID : A_AC3
Duration : 1h 50mn
Bit rate mode : Constant
Bit rate : 448 Kbps
Channel count : 6 channels
Channel positions : Front: L C R, Side: L R, LFE
Sampling rate : 48.0 KHz
Bit depth : 16 bits
Compression mode : Lossy
Stream size : 353 MiB (8%)
Title : НТВ+
Language : Russian
Default : Yes
Forced : No
Audio #2
ID : 3
Format : AC-3
Format/Info : Audio Coding 3
Mode extension : CM (complete main)
Format settings, Endianness : Big
Codec ID : A_AC3
Duration : 1h 50mn
Bit rate mode : Constant
Bit rate : 192 Kbps
Channel count : 2 channels
Channel positions : Front: L R
Sampling rate : 48.0 KHz
Bit depth : 16 bits
Compression mode : Lossy
Stream size : 151 MiB (4%)
Title : Премьер
Language : Russian
Default : No
Forced : No
Audio #3
ID : 4
Format : AC-3
Format/Info : Audio Coding 3
Mode extension : CM (complete main)
Format settings, Endianness : Big
Codec ID : A_AC3
Duration : 1h 50mn
Bit rate mode : Constant
Bit rate : 192 Kbps
Channel count : 2 channels
Channel positions : Front: L R
Sampling rate : 48.0 KHz
Bit depth : 16 bits
Compression mode : Lossy
Stream size : 151 MiB (4%)
Title : Stalk
Language : Russian
Default : No
Forced : No
Audio #4
ID : 5
Format : AC-3
Format/Info : Audio Coding 3
Mode extension : CM (complete main)
Format settings, Endianness : Big
Codec ID : A_AC3
Duration : 1h 50mn
Bit rate mode : Constant
Bit rate : 448 Kbps
Channel count : 6 channels
Channel positions : Front: L C R, Side: L R, LFE
Sampling rate : 48.0 KHz
Bit depth : 16 bits
Compression mode : Lossy
Stream size : 353 MiB (8%)
Language : English
Default : No
Forced : No
Text #1
ID : 6
Format : UTF-8
Codec ID : S_TEXT/UTF8
Codec ID/Info : UTF-8 Plain Text
Language : Russian
Default : No
Forced : No
Text #2
ID : 7
Format : UTF-8
Codec ID : S_TEXT/UTF8
Codec ID/Info : UTF-8 Plain Text
Language : English
Default : No
Forced : No
Menu
00:00:00.000 : en:1
00:07:45.000 : en:2
00:14:11.000 : en:3
00:20:54.000 : en:4
00:31:43.000 : en:5
00:40:24.000 : en:6
00:48:45.000 : en:7
00:56:43.000 : en:8
01:10:29.000 : en:9
01:20:17.000 : en:10
01:25:33.000 : en:11
01:30:13.000 : en:12
01:33:18.000 : en:13
01:45:59.000 : en:14
Скриншоты

_________________
Показать сообщения:    

Текущее время: Сегодня 05:22

Часовой пояс: GMT



Вы не можете начинать темы
Вы не можете отвечать на сообщения
Вы не можете редактировать свои сообщения
Вы не можете удалять свои сообщения
Вы не можете голосовать в опросах
Вы не можете прикреплять файлы к сообщениям
Вы не можете скачивать файлы
Наши партнеры: интернет магазин Ивановского трикотажа textilla.ru