Важное объявление!
У Нас Все раздачи мультитрекерные, при нуле пиров в релизах, можете смело вставать на закачку!
 
Автор Сообщение

HUNTER

Стаж:
4 года 7 месяцев
Сообщений:
61554

Репутация: 101

[+] [-]
Вне форума [Профиль] [ЛС]

В первый раз / The First Time
Страна: США
Студия: Destination Films, Jerimaca Film, Samuel Goldwyn Films LLC
Жанр: мелодрама, комедия
Год выпуска: 2012
Продолжительность: 01:35:00
Перевод: профессиональный (дублированный) [R5]
Оригинальная аудиодорожка: английская
Cубтитры: русские (ValeryPierse), английские
Режиссер: Джон Кэздан / Jon Kasdan
В ролях: Бриттани Робертсон, Дилан О’Брайэн, Джеймс Фрешвилл, Виктория Джастис, Хелстон Сейдж, Джошуа Малина, Крэйг Робертс, Мэгги Элизабет Джонс, Ламаркус Тинкер, Кристин Тейлор, Молли С. Куинн
Описание: Симпатяга Дэйв безнадежно и бесперспективно влюблен в первую школьную красавицу. Очаровательная Обри встречается с самодовольным мачо, который ей совершенно не подходит, но с которым она, зачем-то, решила лишиться девственности. И совсем неизвестно, как бы обернулись жизни двух этих замечательных молодых людей, если бы они случайно не столкнулись на вечеринке, которую разогнала полиция. Обри и Дэйв становятся друзьями… нет вы не подумайте — только друзьями, которые могут поплакаться друг другу в жилетку и пожаловаться на превратности любви. Но однажды их нежная дружба начинает под воздействием сильного эротического электричества превращаться во что-то большее — захватывающее и волнующее. В то, что у каждого когда-то бывает в первый раз…и о чем потом, бывает, смешно вспоминать.

Релиз: fanatus
Качество видео: BDRip 1080p
Исходник: BDRemux 1080p
Контейнер: MKV
Видео: MPEG-4 AVC, 10.0 Mbps , 1920x1080 (16:9), 24.000 fps, 0.201 bit/pixel
Аудио 1: русский (AC3, 6 ch, 48 kHz, 448 kbps)
Аудио 2: английский (DTS, 6 ch, 48 kHz, 1510 kbps)
Формат субтитров: softsub (SRT)
Главы: есть

MediaInfo

General
Unique ID : 251571811673746741041223913319880348350 (0xBD42F7F15C54BF66AF77C6296A1652BE)
Complete name : E:\The First Time.2012.x264.BDRip.1080p.fanatus.mkv
Format : Matroska
Format version : Version 2
File size : 7.93 GiB
Duration : 1h 35mn
Overall bit rate : 11.9 Mbps
Movie name : The First Time (2012) - fanatus
Encoded date : UTC 2013-09-13 14:14:49
Writing application : mkvmerge v3.4.0 ('Rapunzel') сборка от May 15 2010 09:38:20
Writing library : libebml v0.8.0 + libmatroska v0.9.0
Video
ID : 1
Format : AVC
Format/Info : Advanced Video Codec
Format profile : High@L4.1
Format settings, CABAC : Yes
Format settings, ReFrames : 4 frames
Codec ID : V_MPEG4/ISO/AVC
Duration : 1h 35mn
Bit rate : 10 000 Kbps
Width : 1 920 pixels
Height : 1 080 pixels
Display aspect ratio : 16:9
Frame rate : 24.000 fps
Color space : YUV
Chroma subsampling : 4:2:0
Bit depth : 8 bits
Scan type : Progressive
Bits/(Pixel*Frame) : 0.201
Stream size : 6.47 GiB (82%)
Title : The First Time (2012)
Writing library : x264 core 138 r2358 9e941d1
Encoding settings : cabac=1 / ref=4 / deblock=1:-3:-3 / analyse=0x3:0x113 / me=tesa / subme=11 / psy=1 / psy_rd=0.90:0.00 / mixed_ref=1 / me_range=32 / chroma_me=1 / trellis=2 / 8x8dct=1 / cqm=0 / deadzone=21,11 / fast_pskip=0 / chroma_qp_offset=-2 / threads=16 / lookahead_threads=2 / sliced_threads=0 / nr=0 / decimate=0 / interlaced=0 / bluray_compat=0 / constrained_intra=0 / bframes=8 / b_pyramid=2 / b_adapt=2 / b_bias=0 / direct=3 / weightb=1 / open_gop=0 / weightp=2 / keyint=240 / keyint_min=24 / scenecut=40 / intra_refresh=0 / rc_lookahead=240 / rc=2pass / mbtree=0 / bitrate=10000 / ratetol=1.0 / qcomp=0.65 / qpmin=0 / qpmax=69 / qpstep=4 / cplxblur=20.0 / qblur=0.5 / vbv_maxrate=50000 / vbv_bufsize=62500 / nal_hrd=none / ip_ratio=1.35 / pb_ratio=1.25 / aq=1:0.70
Language : English
Default : Yes
Forced : No
Color primaries : BT.709-5, BT.1361, IEC 61966-2-4, SMPTE RP177
Transfer characteristics : BT.709-5, BT.1361
Matrix coefficients : BT.709-5, BT.1361, IEC 61966-2-4 709, SMPTE RP177
Audio #1
ID : 2
Format : AC-3
Format/Info : Audio Coding 3
Mode extension : CM (complete main)
Format settings, Endianness : Big
Codec ID : A_AC3
Duration : 1h 35mn
Bit rate mode : Constant
Bit rate : 448 Kbps
Channel(s) : 6 channels
Channel positions : Front: L C R, Side: L R, LFE
Sampling rate : 48.0 KHz
Bit depth : 16 bits
Compression mode : Lossy
Stream size : 304 MiB (4%)
Title : Dub
Language : Russian
Default : Yes
Forced : No
Audio #2
ID : 3
Format : DTS
Format/Info : Digital Theater Systems
Codec ID : A_DTS
Duration : 1h 35mn
Bit rate mode : Constant
Bit rate : 1 510 Kbps
Channel(s) : 6 channels
Channel positions : Front: L C R, Side: L R, LFE
Sampling rate : 48.0 KHz
Bit depth : 24 bits
Compression mode : Lossy
Stream size : 1.00 GiB (13%)
Title : Original
Language : English
Default : No
Forced : No
Text #1
ID : 4
Format : UTF-8
Codec ID : S_TEXT/UTF8
Codec ID/Info : UTF-8 Plain Text
Language : Russian
Default : No
Forced : No
Text #2
ID : 5
Format : UTF-8
Codec ID : S_TEXT/UTF8
Codec ID/Info : UTF-8 Plain Text
Language : English
Default : No
Forced : No
Menu
00:00:00.000 : :Chapter 01
00:08:42.833 : :Chapter 02
00:13:58.291 : :Chapter 03
00:22:19.083 : :Chapter 04
00:27:43.666 : :Chapter 05
00:33:20.500 : :Chapter 06
00:39:21.000 : :Chapter 07
00:45:14.208 : :Chapter 08
00:49:32.666 : :Chapter 09
00:54:12.875 : :Chapter 10
00:58:36.625 : :Chapter 11
01:02:02.875 : :Chapter 12
01:07:54.041 : :Chapter 13
01:15:28.333 : :Chapter 14
01:23:23.791 : :Chapter 15
01:31:28.125 : :Chapter 16

x264 [info]

---[Information] [13.09.2013 6:39:20] raw [info]: 1920x1080p 1:1 @ 24/1 fps (cfr)
---[Information] [13.09.2013 6:39:20] x264 [info]: using SAR=1/1
---[Information] [13.09.2013 6:39:20] x264 [info]: using cpu capabilities: MMX2 SSE2Fast LZCNT
---[Information] [13.09.2013 6:39:20] x264 [info]: profile High, level 4.1
---[Information] [13.09.2013 17:02:40] x264 [info]: frame I:1003 Avg QP:14.17 size:255811
---[Information] [13.09.2013 17:02:40] x264 [info]: frame P:34870 Avg QP:17.04 size: 88831
---[Information] [13.09.2013 17:02:40] x264 [info]: frame B:100949 Avg QP:18.90 size: 37239
---[Information] [13.09.2013 17:02:40] x264 [info]: consecutive B-frames: 3.5% 3.9% 14.6% 29.5% 17.0% 29.3% 1.6% 0.2% 0.5%
---[Information] [13.09.2013 17:02:40] x264 [info]: mb I I16..4: 16.8% 53.6% 29.6%
---[Information] [13.09.2013 17:02:40] x264 [info]: mb P I16..4: 7.5% 15.7% 3.9% P16..4: 24.0% 18.1% 6.0% 0.0% 0.0% skip:24.9%
---[Information] [13.09.2013 17:02:40] x264 [info]: mb B I16..4: 3.4% 4.5% 1.0% B16..8: 24.9% 10.7% 1.8% direct: 8.8% skip:44.8% L0:38.9% L1:41.3% BI:19.8%
---[Information] [13.09.2013 17:02:40] x264 [info]: 8x8 transform intra:54.3% inter:52.8%
---[Information] [13.09.2013 17:02:40] x264 [info]: direct mvs spatial:99.5% temporal:0.5%
---[Information] [13.09.2013 17:02:40] x264 [info]: coded y,uvDC,uvAC intra: 71.7% 75.9% 46.9% inter: 20.4% 33.1% 13.6%
---[Information] [13.09.2013 17:02:40] x264 [info]: i16 v,h,dc,p: 13% 11% 26% 50%
---[Information] [13.09.2013 17:02:40] x264 [info]: i8 v,h,dc,ddl,ddr,vr,hd,vl,hu: 17% 11% 26% 6% 7% 9% 7% 8% 9%
---[Information] [13.09.2013 17:02:40] x264 [info]: i4 v,h,dc,ddl,ddr,vr,hd,vl,hu: 22% 11% 37% 4% 6% 6% 5% 4% 5%
---[Information] [13.09.2013 17:02:40] x264 [info]: i8c dc,h,v,p: 33% 28% 22% 17%
---[Information] [13.09.2013 17:02:40] x264 [info]: Weighted P-Frames: Y:1.8% UV:0.9%
---[Information] [13.09.2013 17:02:40] x264 [info]: ref P L0: 54.6% 9.7% 24.3% 10.0% 1.3% 0.0%
---[Information] [13.09.2013 17:02:40] x264 [info]: ref B L0: 88.2% 9.0% 2.8%
---[Information] [13.09.2013 17:02:40] x264 [info]: ref B L1: 95.3% 4.7%
---[Information] [13.09.2013 17:02:40] x264 [info]: kb/s:9982.10
---[Information] [13.09.2013 17:02:40] encoded 136822 frames, 3.66 fps, 9982.10 kb/s

Скриншот c названием фильма

Скриншоты

Source vs Rip





_________________
Показать сообщения:    

Текущее время: Сегодня 07:26

Часовой пояс: GMT



Вы не можете начинать темы
Вы не можете отвечать на сообщения
Вы не можете редактировать свои сообщения
Вы не можете удалять свои сообщения
Вы не можете голосовать в опросах
Вы не можете прикреплять файлы к сообщениям
Вы не можете скачивать файлы
Наши партнеры: интернет магазин Ивановского трикотажа textilla.ru