Ивановский Торрент трекер
Яндекс.Погода
 

[Цитировать]
HUNTER

В первый раз / The First Time- Страна: США
Студия: The Mirisch Corporation, Mirisch-Rogallan | United Artists
Жанр: комедия
Год выпуска: 1969
Продолжительность: 01:26:12-Перевод: Профессиональный (двухголосый закадровый) НТВ+
Cубтитры: нет
Оригинальная аудиодорожка: английский-Режиссер: Джеймс Нилсон / James Neilson
В ролях: Жаклин Биссет, Уэс Штерн, Рики Келман, Винк Робертс, Герард Паркес, Козетт Ли, Шэрон Экер, Уильям Бэрринджер, Гэйл Керрингтон, Эрик Лэйн, Винсент Марино...- | Релиз: -Описание: Трое подростков Кении, Майк, и Томми решают стать «настоящими мужчинами». Для этого они едут в Канаду, но их попытка оказывается неудачной. На обратном пути они встречают красивую девушку Анну, которая просит их помочь ей перейти границу и попасть в США. Ребята соглашаются, надеясь, что девушка не окажется в долгу, и у них будет все как у «взрослых». Томми по уши влюбляется в красотку, и его не смущает, что она старше его.-Семпл: http://sendfile.su/1135573-Тип релиза: HDTV 1080i
Контейнер: TS
Видео: 1920x1080i (16:9), 25.000 fps, AVC, ~6740 Kbps, 0.130 bits/pixel
Аудио 1: Русский, 48.0 KHz, MPEG-1 Audio layer 2, 2 ch, 192 kbps
Аудио 2: English, 48.0 KHz, MPEG-1 Audio layer 2, 2 ch, 192 kbps

MediaInfo

GeneralID : 1 (0x1)Complete name : The First Time 1969 MGMHD 1080i.rus.eng.tsFormat : MPEG-TSFile size : 4.52 GiBDuration : 1h 26mnOverall bit rate mode : VariableOverall bit rate : 7 499 KbpsMaximum Overall bit rate : 35.5 Mbps
VideoID : 4113 (0x1011)Menu ID : 1 (0x1)Format : AVCFormat/Info : Advanced Video CodecFormat profile : Main@L4Format settings, CABAC : YesFormat settings, ReFrames : 4 framesCodec ID : 27Duration : 1h 26mnBit rate : 6 740 KbpsWidth : 1 920 pixelsHeight : 1 080 pixelsDisplay aspect ratio : 16:9Frame rate : 25.000 fpsStandard : ComponentColor space : YUVChroma subsampling : 4:2:0Bit depth : 8 bitsScan type : InterlacedScan order : Top Field FirstBits/(Pixel*Frame) : 0.130Stream size : 4.06 GiB (90%)Color range : LimitedColor primaries : BT.709Transfer characteristics : BT.709Matrix coefficients : BT.709
Audio #1ID : 4352 (0x1100)Menu ID : 1 (0x1)Format : MPEG AudioFormat version : Version 1Format profile : Layer 2Codec ID : 4Duration : 1h 26mnBit rate mode : ConstantBit rate : 192 KbpsChannel(s) : 2 channelsSampling rate : 48.0 KHzCompression mode : LossyStream size : 118 MiB (3%)Language : Russian
Audio #2ID : 4353 (0x1101)Menu ID : 1 (0x1)Format : MPEG AudioFormat version : Version 1Format profile : Layer 2Codec ID : 4Duration : 1h 26mnBit rate mode : ConstantBit rate : 192 KbpsChannel(s) : 2 channelsSampling rate : 48.0 KHzCompression mode : LossyStream size : 118 MiB (3%)Language : English

Скриншоты

Показать сообщения:    

Текущее время: 24-Окт 01:24

Часовой пояс: UTC - 1


Вы не можете начинать темы
Вы не можете отвечать на сообщения
Вы не можете редактировать свои сообщения
Вы не можете удалять свои сообщения
Вы не можете голосовать в опросах
Вы не можете прикреплять файлы к сообщениям
Вы не можете скачивать файлы

!ВНИМАНИЕ!
Сайт не предоставляет электронные версии произведений, а занимается лишь коллекционированием и каталогизацией ссылок, присылаемых и публикуемых на форуме нашими читателями. Если вы являетесь правообладателем какого-либо представленного материала и не желаете, чтобы ссылка на него находилась в нашем каталоге, свяжитесь с нами, и мы незамедлительно удалим ее. Файлы для обмена на трекере предоставлены пользователями сайта, и администрация не несет ответственности за их содержание. Просьба не заливать файлы, защищенные авторскими правами, а также файлы нелегального содержания!