Важное объявление!
У Нас Все раздачи мультитрекерные, при нуле пиров в релизах, можете смело вставать на закачку!
Статистика раздачи
Размер:     |    Зарегистрирован:     |    Скачан:     |   
Нет
 
     
 
 
Автор Сообщение

димитри37

Стаж:
4 года 5 месяцев
Сообщений:
1236

Репутация: 127

[+] [-]
Вне форума [Профиль] [ЛС]

В лесах и на горах
Год выпуска: 2010
Производство: STAR MEIDA
Жанр: Драма, исторический фильм
Продолжительность: ~ 00:45:00 / серия
Режиссёр: Александр Замятин
В ролях: Владимир Гостюхин, Елена Дробышева, Ольга Арнтгольц, Мария Луговая, Евгения Добровольская, Мария Волкова (II), Сергей Баталов, Игорь Костолевский, Артем Михалков, Леонид Громов, Ольга Кабо, Юлия Снигирь, Владимир Стеклов, Лариса Преториус, Мария Буравлева, Владимир Коренев, Екатерина Копанова, Алексей Воробьев, Владимир Капустин (II), Алексей Горбунов, Александр Карпов (III), Денис Беспалый, Максим Заусалин, Алексей Завьялов, Руслан Ягудин, Юрий Нифонтов, Эдуард Чекмазов, Максим Важов, Дмитрий Мазуров, Ирина Сидорова, Элеонора Ильченко, Анна Гученкова, Дарья Иванова, Алексей Аптовцев, Дмитрий Буренков, Виталий Гашаков, Олег Вавилов, Михаил Гуро, Вера Пересветова, Виктор Пипа, Янис Политов, Дмитрий Прокофьев, Евгений Щецов, Олег Филипчик, Алексей Андреев, Вадим Андреев, Кирилл Бурдихин, Евгения Бурдихина, Геннадий Атянин, Вадим Борисов, Андрей Бутин, Вячеслав Бухаров, Владимир Драковский, Александр Евсюков, Дмитрий Журавлев (III), Геннадий Землянский, Валентина Карева, Вячеслав Левченко, Юрий Лопарев, Сергей Мамаев, Валерий Маркин, Павел Маркин, Елена Овчинникова, Александр Комиссаров (II), Юрий Коновалов, Ирина Померанцева, Николай Разуменко, Олег Рой, Ирина Скрылёва, Сергей Чудаков и другие.
Описание: Действие картины происходит в середине 19 века. Небольшой провинциальный городок Розгов, где начинается действие картины, расположен прямо на берегу Волги. Зажиточный купец-тысячник Потап Максимыч Чапурин привозит на ярмарку партию посуды на продажу. Туда же прибывает владелец мукомолен Масленников со своим сыном, двадцатилетним Евграфом. Масленников покупает у Чапурина партию посуды, и они решают отметить удачную сделку и знакомство. В трактире, где Масленников и Чапурин ужинают, появляется еще один купец из Розгова – Гаврила Маркелыч Залетов. Масленников ищет жену для сына и Чапурин предлагает познакомить Евграфа с Марьей Гавриловной, дочерью Залетова, молодой красавицей на выданье. Купцы ударяют по рукам. Евграф и Марья Гавриловна узнают о планах родителей, и оба не желают выходить за незнакомца, но судьба сталкивает их неожиданно, еще до смотрин. Евграф спасает в поле девушку – ее бричка чуть не падает с обрыва. Девушкой оказывается Марья Гавриловна. Молодые люди влюбляются друг в друга и клянутся в вечной любви и верности… Неожиданно для всех Масленников - старший сообщает всем, что сам намерен жениться на Марье Гавриловне, потому как полюбил невестушку с первого взгляда… В романе переплетено много сюжетных линий, особое внимание уделяется авантюрно-детективной истории. На судьбы героев выпадают сильнейшие испытания: любовь, богатство, слава, гибель близких. Но самое главное испытание - насколько эти герои, пережив все беды, останутся верными нравственным законам.
Доп. информация: Релиз -

Рип чистый. Без посторонних надписей. Выкладывается как есть.
Качество: HDTV 1080i
Контейнер: TS
Видео кодек: AVC
Аудио кодек: AC3
Видео: 1920x1080 (16:9) 25.000 fps 7 655 Kbps, 0.148 bit/pixel
Аудио: MPEG Audio 48000Hz stereo 192 Кбит/сек

Скриншоты


MI

GeneralID : 1 (0x1)Complete name : H:\ВЫКЛАДКА\HDTV\Сериалы\В лесах и на горах (2010, Драма, Исторический фильм, HDTV) (MYDIMKA)\01 серия.tsFormat : MPEG-TSFile size : 2.54 GiBDuration : 43mn 3sOverall bit rate mode : VariableOverall bit rate : 8 438 Kbps
VideoID : 2911 (0xB5F)Menu ID : 1 (0x1)Format : AVCFormat/Info : Advanced Video CodecFormat profile : High@L4.0Format settings, CABAC : YesFormat settings, ReFrames : 4 framesFormat settings, GOP : M=3, N=30Codec ID : 27Duration : 43mn 3sBit rate : 7 827 KbpsWidth : 1 920 pixelsHeight : 1 080 pixelsDisplay aspect ratio : 16:9Frame rate : 25.000 fpsColor space : YUVChroma subsampling : 4:2:0Bit depth : 8 bitsScan type : MBAFFBits/(Pixel*Frame) : 0.151Stream size : 2.35 GiB (93%)
AudioID : 2912 (0xB60)Menu ID : 1 (0x1)Format : MPEG AudioFormat version : Version 1Format profile : Layer 2Codec ID : 3Duration : 43mn 3sBit rate mode : ConstantBit rate : 192 KbpsChannel(s) : 2 channelsSampling rate : 48.0 KHzCompression mode : LossyStream size : 59.1 MiB (2%)Language : Russian

Внимание! Раздача ведётся путём добавления новых выпусков

Внимание! Раздача ведётся путём добавления новых выпусков; при каждом добавлении создётся новый торрент. Чтобы начать докачку нового выпуска, пользователям необходимо сделать следующее:
(1) остановить скачивание,
(2) удалить старый торрент у себя из клиента (старые выпуски удалять не надо),
(3) скачать новый торрент и запустить его у себя в клиенте вместо старого, при этом указать клиенту путь в старую папку куда и должно происходить скачивание новых выпусков.
Ваш клиент при этом должен произвести хеширование (проверку) старой папки (если не производит сам - помогите ему сделать это), и будет докачивать только те выпуски которых у вас ещё нет. Старые выпуски при этом не удаляются, а продолжают раздаваться!
Eсли вы уже удалили старые выпуски, то предотвратить повторную закачку старых выпусков можно, отжав галочку в соответсвующих местах при запуске нового торрента. По возможности, желательно не удалять старые выпуски как можно дольше чтобы релизёр не столько продолжал раздавать старые выпуски, а смог сконцентрироваться на новых.
-
Показать сообщения:    

Текущее время: Сегодня 05:39

Часовой пояс: GMT



Вы не можете начинать темы
Вы не можете отвечать на сообщения
Вы не можете редактировать свои сообщения
Вы не можете удалять свои сообщения
Вы не можете голосовать в опросах
Вы не можете прикреплять файлы к сообщениям
Вы не можете скачивать файлы