Ивановский Торрент трекер
Яндекс.Погода
Статистика раздачи
Размер:  8.73 GB   |    Зарегистрирован:  2 года 10 месяцев   |    Скачан:  0 раз

Полного источника не было: Никогда

 
     
 
 
 

[Цитировать]
HUNTER

В краю крови и меда / In the Land of Blood and Honey
Страна: США
Студия: GK Films
Жанр: драма, мелодрама, военный
Год выпуска: 2011
Продолжительность: 02:06:18
Перевод: Профессиональный (многоголосый закадровый)
Cубтитры: Rus, Eng
Оригинальная аудиодорожка: Bosnian
Режиссер: Анджелина Джоли / Angelina Jolie
В ролях: Зана Марьянович, Горан Костик, Раде Шербеджия, Никола Джурицко, Бранко Джурич, Джана Пиньо, Милош Тимотиевич, Федя Стукан, Доля Гавански, Альма Терзич
Описание: Балканы. 90-е годы ХХ века. Они встретились и полюбили друг друга страстно и нежно. А потом началась война, которая раскидала их по разные стороны линии фронта. Волею судьбы девушка оказалась в лагере для военнопленных, где снова его встретила. Только теперь они — враги. Неужели безумие ненависти может задушить любовь?..

Тип релиза: BDRip 720p с Blu-Ray Disc
Контейнер: MKV
Видео: MPEG-4 AVC, 6681 Кбит/с, 1280x720, 24,000 fps
Аудио: Rus, DTS, 1510 kb/s (6 ch), 48 kHz
Аудио 2: Bos, DTS, 1510 kb/s (6 ch), 48 kHz
Формат субтитров: softsub (SRT)

MediaInfo

Format : Matroska
Format version : Version 4 / Version 2
File size : 8.73 GiB
Duration : 2h 6mn
Overall bit rate : 9 896 Kbps
Movie name : Tonik
Encoded date : UTC 2015-01-10 05:37:13
Writing application : mkvmerge v7.1.0 ('Good Love') 64bit built on Jul 27 2014 13:06:55
Writing library : libebml v1.3.0 + libmatroska v1.4.1
_STATISTICS_WRITING_APP : mkvmerge v7.1.0 ('Good Love') 64bit built on Jul 27 2014 13:06:55
_STATISTICS_WRITING_DATE_UTC : 2015-01-10 05:37:13
_STATISTICS_TAGS : BPS DURATION NUMBER_OF_FRAMES NUMBER_OF_BYTES
DURATION : 02:00:34.212000000
NUMBER_OF_FRAMES : 873
NUMBER_OF_BYTES : 23291
Video
ID : 1
Format : AVC
Format/Info : Advanced Video Codec
Format profile : High@L4.1
Format settings, CABAC : Yes
Format settings, ReFrames : 12 frames
Codec ID : V_MPEG4/ISO/AVC
Duration : 2h 6mn
Bit rate : 6 681 Kbps
Width : 1 280 pixels
Height : 720 pixels
Display aspect ratio : 16:9
Frame rate mode : Constant
Frame rate : 24.000 fps
Color space : YUV
Chroma subsampling : 4:2:0
Bit depth : 8 bits
Scan type : Progressive
Bits/(Pixel*Frame) : 0.302
Stream size : 5.89 GiB (68%)
Writing library : x264 core 144 r2525 40bb568
Encoding settings : cabac=1 / ref=12 / deblock=1:-3:-3 / analyse=0x3:0x133 / me=umh / subme=11 / psy=1 / psy_rd=1.00:0.00 / mixed_ref=1 / me_range=48 / chroma_me=1 / trellis=2 / 8x8dct=1 / cqm=0 / deadzone=21,11 / fast_pskip=0 / chroma_qp_offset=-2 / threads=12 / lookahead_threads=3 / sliced_threads=0 / nr=0 / decimate=1 / interlaced=0 / bluray_compat=0 / constrained_intra=0 / bframes=10 / b_pyramid=2 / b_adapt=2 / b_bias=0 / direct=1 / weightb=1 / open_gop=0 / weightp=2 / keyint=250 / keyint_min=24 / scenecut=40 / intra_refresh=0 / rc_lookahead=60 / rc=crf / mbtree=1 / crf=17.7 / qcomp=0.60 / qpmin=0 / qpmax=69 / qpstep=4 / ip_ratio=1.40 / aq=1:1.00
Language : Bosnian
Default : Yes
Forced : No
Audio #1
ID : 2
Format : DTS
Format/Info : Digital Theater Systems
Mode : 16
Format settings, Endianness : Big
Codec ID : A_DTS
Duration : 2h 6mn
Bit rate mode : Constant
Bit rate : 1 509 Kbps
Channel(s) : 6 channels
Channel positions : Front: L C R, Side: L R, LFE
Sampling rate : 48.0 KHz
Bit depth : 16 bits
Compression mode : Lossy
Stream size : 1.33 GiB (15%)
Language : Russian
Default : Yes
Forced : No
Audio #2
ID : 3
Format : DTS
Format/Info : Digital Theater Systems
Mode : 16
Format settings, Endianness : Big
Codec ID : A_DTS
Duration : 2h 6mn
Bit rate mode : Constant
Bit rate : 1 509 Kbps
Channel(s) : 6 channels
Channel positions : Front: L C R, Side: L R, LFE
Sampling rate : 48.0 KHz
Bit depth : 16 bits
Compression mode : Lossy
Stream size : 1.33 GiB (15%)
Language : Bosnian
Default : No
Forced : No
Text #1
ID : 4
Format : UTF-8
Codec ID : S_TEXT/UTF8
Codec ID/Info : UTF-8 Plain Text
Language : Russian
Default : No
Forced : No
Text #2
ID : 5
Format : UTF-8
Codec ID : S_TEXT/UTF8
Codec ID/Info : UTF-8 Plain Text
Language : English
Default : No
Forced : No

Скриншоты

[iv-torrents.ru].t39474.torrent
Торрент: Зарегистрирован [ 2015-01-13 21:02 ] · 3CE7BD6FD06A004DFD29305BEBD8FA3C7D999018

Скачать .torrent

Скачать

22 KB

Статус: проверено
Скачан: 0 раз
Размер: 8.73 GB
terms.php
Похожие темы


Показать сообщения:    

Текущее время: 12-Дек 10:26

Часовой пояс: UTC ± 0


Вы не можете начинать темы
Вы не можете отвечать на сообщения
Вы не можете редактировать свои сообщения
Вы не можете удалять свои сообщения
Вы не можете голосовать в опросах
Вы не можете прикреплять файлы к сообщениям
Вы можете скачивать файлы

!ВНИМАНИЕ!
Сайт не предоставляет электронные версии произведений, а занимается лишь коллекционированием и каталогизацией ссылок, присылаемых и публикуемых на форуме нашими читателями. Если вы являетесь правообладателем какого-либо представленного материала и не желаете, чтобы ссылка на него находилась в нашем каталоге, свяжитесь с нами, и мы незамедлительно удалим ее. Файлы для обмена на трекере предоставлены пользователями сайта, и администрация не несет ответственности за их содержание. Просьба не заливать файлы, защищенные авторскими правами, а также файлы нелегального содержания!