Важное объявление!
У Нас Все раздачи мультитрекерные, при нуле пиров в релизах, можете смело вставать на закачку!
 
Автор Сообщение

HUNTER

Стаж:
4 года 7 месяцев
Сообщений:
61564

Репутация: 101

[+] [-]
Вне форума [Профиль] [ЛС]

В бой идут одни «старики» (Цветная версия)
Страна: СССР
Жанр: Драма, военный
Год выпуска: 1973
Продолжительность: 01:31:53-Перевод: Не требуется
Cубтитры: русские
Оригинальная аудиодорожка: русский-Режиссер: Леонид Быков-В ролях: Леонид Быков, Сергей Подгорный, Сергей Иванов, Рустам Сагдуллаев, Евгения Симонова, Ольга Матешко, Владимир Талашко, Алексей Смирнов, Виктор Мирошниченко, Григорий Гладий-Описание: Эта эскадрилья стала «поющей» - так капитан Титаренко подбирал себе новичков. Его «старикам» было не больше двадцати, но «желторотиков», пополнение из летных училищ ускоренного выпуска, в бой все равно, по возможности, не пускали. Им еще многое предстояло испытать - и жар боев, и радость первой победы над врагом, и величие братства, скрепленного кровью, и первую любовь, и горечь утраты... И настанет день, когда по команде «в бой идут одни старики» бывшие желторотики бросятся к своим самолетам...-Тип релиза: BDRip 1080p
Контейнер: MKV-Релиз: Кинозал-HD-Видео: MPEG-4 AVC, 16.4 Мбит/с, 1472x1080, 24.000 кадр/с
Аудио: DTS, 48 КГц, 6 ch, 1536 Кбит/с
Формат субтитров: softsub (SRT)

MediaInfo

General
Complete name : \V.Boy.Idut.Odni.Stariki.1973.x264.BDRip(1080p.mkv
Format : Matroska
File size : 11.5 GiB
Duration : 1h 31mn
Overall bit rate : 17.9 Mbps
Encoded date : UTC 2011-05-02 16:06:54
Writing application : mkvmerge v4.7.0 ('Just Like You Imagined') сборка от Apr 21 2011 01:13:14
Writing library : libebml v1.2.0 + libmatroska v1.1.0
Video
ID : 1
Format : AVC
Format/Info : Advanced Video Codec
Format profile : High@L4.1
Format settings, CABAC : Yes
Format settings, ReFrames : 5 frames
Muxing mode : Container profile=Unknown@4.1
Codec ID : V_MPEG4/ISO/AVC
Duration : 1h 31mn
Bit rate : 16.1 Mbps
Nominal bit rate : 16.4 Mbps
Width : 1 472 pixels
Height : 1 080 pixels
Display aspect ratio : 4/3
Frame rate : 24.000 fps
Resolution : 24 bits
Colorimetry : 4:2:0
Scan type : Progressive
Bits/(Pixel*Frame) : 0.421
Stream size : 10.3 GiB (90%)
Writing library : x264 core 114 r1924 08d04a4
Encoding settings : cabac=1 / ref=5 / deblock=1:-3:-3 / analyse=0x3:0x133 / me=umh / subme=10 / psy=1 / psy_rd=1.05:0.10 / mixed_ref=1 / me_range=64 / chroma_me=1 / trellis=2 / 8x8dct=1 / cqm=0 / deadzone=21,11 / fast_pskip=1 / chroma_qp_offset=-3 / threads=9 / sliced_threads=0 / nr=0 / decimate=1 / interlaced=0 / constrained_intra=0 / bframes=11 / b_pyramid=2 / b_adapt=2 / b_bias=0 / direct=3 / weightb=1 / open_gop=0 / weightp=2 / keyint=250 / keyint_min=24 / scenecut=40 / intra_refresh=0 / rc_lookahead=60 / rc=2pass / mbtree=1 / bitrate=16412 / ratetol=1.0 / qcomp=0.70 / qpmin=0 / qpmax=69 / qpstep=4 / cplxblur=20.0 / qblur=0.5 / vbv_maxrate=50000 / vbv_bufsize=62500 / nal_hrd=none / ip_ratio=1.40 / aq=1:0.90
Audio
ID : 2
Format : DTS
Format/Info : Digital Theater Systems
Codec ID : A_DTS
Duration : 1h 31mn
Bit rate mode : Constant
Bit rate : 1 510 Kbps
Channel(s) : 6 channels
Channel positions : Front: L C R, Surround: L R, LFE
Sampling rate : 48.0 KHz
Resolution : 16 bits
Stream size : 992 MiB (8%)
Language : Russian
Text
ID : 3
Format : UTF-8
Codec ID : S_TEXT/UTF8
Codec ID/Info : UTF-8 Plain Text
Language : Russian

Скриншоты


_________________
Показать сообщения:    

Текущее время: Сегодня 01:17

Часовой пояс: GMT



Вы не можете начинать темы
Вы не можете отвечать на сообщения
Вы не можете редактировать свои сообщения
Вы не можете удалять свои сообщения
Вы не можете голосовать в опросах
Вы не можете прикреплять файлы к сообщениям
Вы не можете скачивать файлы
Наши партнеры: интернет магазин Ивановского трикотажа textilla.ru