Важное объявление!
У Нас Все раздачи мультитрекерные, при нуле пиров в релизах, можете смело вставать на закачку!
 
Автор Сообщение

HUNTER

Стаж:
4 года 7 месяцев
Сообщений:
61546

Репутация: 101

[+] [-]
Вне форума [Профиль] [ЛС]

В ад и обратно
Hell and Back
«Welcome to Hell»
Год выпуска: 2015
Страна: США
Жанр: мультфильм, комедия, приключения
Продолжительность: 01:25:57
Перевод: Любительский (Двухголосый закадровый) - SinisterSound
русские субтитры: нет-Режиссёр: Том Джинас : Tom Gianas, Росс Шуман : Ross Shuman-Роли озвучивали: Мила Кунис, Дэнни МакБрайд, Боб Оденкёрк, Ник Свардсон, ТиДжей Миллер, Сьюзен Сарандон, Роб Риггл, Мария Бэмфорд, Лэнс Басс, Х. Джон Бенжамин-Описание: История о двух закадычных друзьях, которые должны спасти третьего участника их сплоченного коллектива после того, как тот по ошибке попал прямиком в Ад.- релиз: -Качество: WEB-DL 720p
Формат: MKV
Видео кодек: AVC
Аудио кодек: AC3
Видео: 1280x720 , 23,976 fps, ~3897 kbps avg, 0.176 bit/pixel
Аудио #1: [RUS] 48 kHz, AC3 Dolby Digital, 2/0 (L,R) ch, ~192 kbps
Аудио #2: [ENG] 48 kHz, AC3 Dolby Digital, 3/2 (L,C,R,l,r) + LFE ch, ~384 kbps
субтитры: английские
навигация по главам: 8 глав (не именные)

MediaInfo

Общее
Уникальный идентификатор : 187277889414561922672936215127025975865 (0x8CE468D5F1778236A41AE925137B0239)
Полное имя : D:\Hell and Back\Hell and Back.2015.WEB-DL 720p.mkv
Формат : Matroska
Версия формата : Version 4 / Version 2
Размер файла : 2,74 Гбайт
Продолжительность : 1 ч. 25 м.
Общий поток : 4563 Кбит/сек
Название фильма : Hell and Back.2015.WEB-DL 720p -Azureus-
Дата кодирования : UTC 2016-03-14 08:18:03
Программа кодирования : mkvmerge v7.1.0 ('Good Love') 32bit built on Jul 27 2014 12:59:18
Библиотека кодирования : libebml v1.3.0 + libmatroska v1.4.1
DURATION : 01:25:57.024000000
NUMBER_OF_FRAMES : 161157
NUMBER_OF_BYTES : 123768576
_STATISTICS_WRITING_APP : mkvmerge v7.1.0 ('Good Love') 32bit built on Jul 27 2014 12:59:18
_STATISTICS_WRITING_DATE_UTC : 2016-03-14 08:18:03
_STATISTICS_TAGS : BPS DURATION NUMBER_OF_FRAMES NUMBER_OF_BYTES
Видео
Идентификатор : 1
Формат : AVC
Формат/Информация : Advanced Video Codec
Профиль формата : High@L3.1
Параметр CABAC формата : Нет
Параметр ReFrames формата : 2 кадра
Идентификатор кодека : V_MPEG4/ISO/AVC
Продолжительность : 1 ч. 25 м.
Битрейт : 3897 Кбит/сек
Ширина : 1280 пикселей
Высота : 720 пикселей
Соотношение сторон : 16:9
Режим частоты кадров : Постоянный
Частота кадров : 23,976 кадра/сек
Цветовое пространство : YUV
Субдискретизация насыщенности : 4:2:0
Битовая глубина : 8 бит
Тип развёртки : Прогрессивная
Бит/(Пиксели*Кадры) : 0.176
Размер потока : 2,34 Гбайт (85%)
Язык : English
Default : Да
Forced : Нет
Цветовой диапазон : Limited
Основные цвета : BT.709
Характеристики трансфера : BT.709
Коэффициенты матрицы : BT.709
Аудио #1
Идентификатор : 2
Формат : AC-3
Формат/Информация : Audio Coding 3
Расширение режима : CM (complete main)
Параметр Endianness формата : Big
Идентификатор кодека : A_AC3
Продолжительность : 1 ч. 25 м.
Вид битрейта : Постоянный
Битрейт : 192 Кбит/сек
Каналы : 2 канала
Расположение каналов : Front: L R
Частота : 48,0 КГц
Метод сжатия : С потерями
Размер потока : 118 Мбайт (4%)
Заголовок : DVO - SinisterSound
Язык : Russian
Default : Да
Forced : Нет
Аудио #2
Идентификатор : 3
Формат : AC-3
Формат/Информация : Audio Coding 3
Расширение режима : CM (complete main)
Параметр Endianness формата : Big
Идентификатор кодека : A_AC3
Продолжительность : 1 ч. 25 м.
Вид битрейта : Постоянный
Битрейт : 384 Кбит/сек
Каналы : 6 каналов
Расположение каналов : Front: L C R, Side: L R, LFE
Частота : 48,0 КГц
Метод сжатия : С потерями
Размер потока : 236 Мбайт (8%)
Заголовок : ENG
Язык : English
Default : Нет
Forced : Нет
Текст
Идентификатор : 4
Формат : UTF-8
Идентификатор кодека : S_TEXT/UTF8
Идентификатор кодека/Информация : UTF-8 Plain Text
Заголовок : eng sub
Язык : English
Default : Нет
Forced : Нет
Меню
00:00:00.000 : en:1
00:10:36.000 : en:2
00:20:30.000 : en:3
00:31:06.000 : en:4
00:43:16.000 : en:5
00:57:18.000 : en:6
01:12:26.000 : en:7
01:22:04.000 : en:8

_________________
Показать сообщения:    

Текущее время: Сегодня 23:11

Часовой пояс: GMT



Вы не можете начинать темы
Вы не можете отвечать на сообщения
Вы не можете редактировать свои сообщения
Вы не можете удалять свои сообщения
Вы не можете голосовать в опросах
Вы не можете прикреплять файлы к сообщениям
Вы не можете скачивать файлы
Наши партнеры: интернет магазин Ивановского трикотажа textilla.ru