Важное объявление!
У Нас Все раздачи мультитрекерные, при нуле пиров в релизах, можете смело вставать на закачку!
 
Автор Сообщение

HUNTER

Стаж:
4 года 10 месяцев
Сообщений:
65576

Репутация: 101

[+] [-]
Вне форума [Профиль] [ЛС]

"В августе 43-го." Вся правда об освобождении Харькова.
Год выпуска: 2013
Страна: Украина
Жанр: Документальный
Продолжительность: 01:30:27
Перевод: Не требуется
Русские субтитры: нет
Режиссер: Наталья Курдюкова
Описание: Фильм рассказывает об освобождении Харькова в августе 1943 года. Интерес вызывает информация, которая почти никогда не упоминается при официальной версии освобождения Харькова. Производство "Robinzon ТV"
качество: WEBRip
формат: AVI
Видео: AVI, 720 х 480, 4 : 3, 1 989 Kbps, 25.000 fps
Аудио: MPEG Audio, 128 Kbps, 44.1 KHz, 2

MediaInfo

General
Format : AVI
Format/Info : Audio Video Interleave
Format profile : OpenDML
File size : 1.35 GiB
Duration : 1h 30mn
Overall bit rate : 2 131 Kbps
Writing application : Lavf51.12.1
Video #0
ID : 0
Format : AVC
Format/Info : Advanced Video Codec
Format profile : Baseline@L3.0
Format settings, CABAC : No
Format settings, ReFrames : 4 frames
Format settings, GOP : M=1, N=12
Codec ID : H264
Duration : 1h 30mn
Bit rate : 1 989 Kbps
Width : 720 pixels
Height : 480 pixels
Display aspect ratio : 4:3
Frame rate : 25.000 fps
Standard : PAL
Color space : YUV
Chroma subsampling : 4:2:0
Bit depth : 8 bits
Scan type : Progressive
Bits/(Pixel*Frame) : 0.230
Stream size : 1.26 GiB (93%)
Color primaries : BT.601 PAL
Transfer characteristics : BT.470 System B, BT.470 System G
Matrix coefficients : BT.601
Audio #1
ID : 1
Format : MPEG Audio
Format version : Version 1
Format profile : Layer 3
Mode : Joint stereo
Mode extension : MS Stereo
Codec ID : 55
Codec ID/Hint : MP3
Duration : 1h 30mn
Bit rate mode : Constant
Bit rate : 128 Kbps
Channel(s) : 2 channels
Sampling rate : 44.1 KHz
Compression mode : Lossy
Stream size : 82.8 MiB (6%)
Alignment : Aligned on interleaves
Interleave, duration : 26 ms (0.65 video frame)
Writing library : LAME3.97

Скриншоты

[img] [/img]
[img] [/img]
[img] [/img]
[img] [/img]

_________________
Показать сообщения:    

Текущее время: Сегодня 12:06

Часовой пояс: GMT



Вы не можете начинать темы
Вы не можете отвечать на сообщения
Вы не можете редактировать свои сообщения
Вы не можете удалять свои сообщения
Вы не можете голосовать в опросах
Вы не можете прикреплять файлы к сообщениям
Вы не можете скачивать файлы