Важное объявление!
У Нас Все раздачи мультитрекерные, при нуле пиров в релизах, можете смело вставать на закачку!
 
Автор Сообщение

HUNTER

Стаж:
4 года 10 месяцев
Сообщений:
65511

Репутация: 101

[+] [-]
Вне форума [Профиль] [ЛС]

Вяземский Котел
-Год выпуска: 2011
Страна: Россия
Жанр: Документальный
Продолжительность: 00:39:45
Перевод: Не требуется
Режиссер: Сергей Дубинкин-Описание: Октябрь 1941 года. Хаос войны. В полном окружении под Вязьмой наши армии сражаются и гибнут за Москву. На этих страницах войны 50 лет стоял гриф "секретно". Чем же на самом деле была Вяземская битва: военным поражением или стратегической победой? Кем были погибшие и взятые в немецкий плен генералы и солдаты: предателями или героями? И почему Святейший Патриарх Кирилл назвал это сражение "Русской Голгофой"?- -Качество: DVDRip
Формат: AVI
Видео кодек: XviD
Аудио кодек: MP3
Видео: XviD, 1492 Кбит/с, 720x544, 25.00fps
Аудио: MP3, 2 ch, 128 Кбит/с
-
-
-
-

MediaInfo

Код:
Видео
Идентификатор                            : 0
Формат                                   : MPEG-4 Visual
Профиль формата                          : Advanced Simple@L5
Параметр BVOP формата                    : 2
Параметр QPel формата                    : Нет
Параметр GMC формата                     : Без точки перехода
Параметр матрицы формата                 : Default (H.263)
Идентификатор кодека                     : XVID
Идентификатор кодека/Подсказка           : XviD
Продолжительность                        : 39 м.
Битрейт                                  : 1492 Кбит/сек
Ширина                                   : 720 пикселей
Высота                                   : 544 пикселя
Соотношение сторон                       : 4:3
Частота кадров                           : 25,000 кадров/сек
Цветовое пространство                    : YUV
Субдискретизация насыщенности            : 4:2:0
Битовая глубина                          : 8 бит
Тип развёртки                            : Прогрессивная
Метод сжатия                             : С потерями
Бит/(Пиксели*Кадры)                      : 0.152
Размер потока                            : 418 Мбайт (91%)
Библиотека кодирования                   : XviD 63
Аудио
Идентификатор                            : 1
Формат                                   : MPEG Audio
Версия формата                           : Version 1
Профиль формата                          : Layer 3
Идентификатор кодека                     : 55
Идентификатор кодека/Подсказка           : MP3
Продолжительность                        : 39 м.
Продолжительность оригинала              : 39 м.
Вид битрейта                             : Постоянный
Битрейт                                  : 128 Кбит/сек
Каналы                                   : 2 канала
Частота                                  : 48,0 КГц
Метод сжатия                             : С потерями
Размер потока                            : 35,9 Мбайт (8%)
Выравнивание                             : Разделение по промежуткам
Продолжительность промежутка             : 24  мс. (0,60 видеокадр)

Скриншоты


_________________
Показать сообщения:    

Текущее время: Сегодня 07:28

Часовой пояс: GMT



Вы не можете начинать темы
Вы не можете отвечать на сообщения
Вы не можете редактировать свои сообщения
Вы не можете удалять свои сообщения
Вы не можете голосовать в опросах
Вы не можете прикреплять файлы к сообщениям
Вы не можете скачивать файлы